coor
一代宗师

[2019] [欧美] [剧情] [WEB-1080P] 糊涂蛋/欺骗 Buffaloed.2019.1080p.AMZN.WEBRip.DDP5.1.x264-NTG 6.85GB

-->

帖子完整标题:糊涂蛋/欺骗 Buffaloed.2019.1080p.AMZN.WEBRip.DDP5.1.x264-NTG 6.85GB




◎译  名 糊涂蛋 / 欺骗
◎片  名 Buffaloed
◎年  代 2019
◎产  地 美国
◎类  别 剧情 / 喜剧
◎语  言 英语
◎上映日期 2019-04-27(美国 Tribeca Film Festival)
◎IMDb评分 6.6/10 from 56 users
◎IMDb链接 https://www.imdb.com/title/tt8647310
◎豆瓣评分 0/10 from 0 users
◎豆瓣链接 https://movie.douban.com/subject/30282350/
◎导  演 谭雅·维克斯勒 Tanya Wexler
◎编  剧 布莱恩·萨卡 Brian Sacca
◎主  演 佐伊·达奇 Zoey Deutch
      朱迪·格雷尔 Judy Greer
      诺亚.雷德 Noah Reid
      泰德·路德齐克 Ted Ludzik
      Jermaine Fowler
      Paulyne Wei


◎标  签 美国 | 电影 | 喜剧 | 美国电影 | 未上映 | 剧情 | 2020

◎简  介

  设定在一个讨债的黑暗社会里,本土骗子Peg Dahl在经历了一些麻烦之后,发现自己债务缠身,在家乡之外拥有更光明前途的机会被浪费掉了,于是她决定自己成为一名讨债人,并与这个城市的催债王开战。
Video
ID : 1
Format : AVC
Format/Info : Advanced Video Codec
Format profile : [email protected]
Format settings : CABAC / 4 Ref Frames
Format settings, CABAC : Yes
Format settings, Reference frames : 4 frames
Codec ID : V_MPEG4/ISO/AVC
Duration : 1 h 35 min
Bit rate mode : Constant
Bit rate : 10 000 kb/s
Width : 1 920 pixels
Height : 800 pixels
Display aspect ratio : 2.40:1
Frame rate mode : Constant
Frame rate : 23.976 (24000/1001) FPS
Color space : YUV
Chroma subsampling : 4:2:0
Bit depth : 8 bits
Scan type : Progressive
Bits/(Pixel*Frame) : 0.272
Stream size : 6.42 GiB (94%)
Default : Yes
Forced : No
Color range : Limited
Color primaries : BT.709
Transfer characteristics : BT.709
Matrix coefficients : BT.709

Audio
ID : 2
Format : E-AC-3
Format/Info : Enhanced AC-3
Commercial name : Dolby Digital Plus
Codec ID : A_EAC3
Duration : 1 h 35 min
Bit rate mode : Constant
Bit rate : 640 kb/s
Channel(s) : 6 channels
Channel layout : L R C LFE Ls Rs
Sampling rate : 48.0 kHz
Frame rate : 31.250 FPS (1536 SPF)
Compression mode : Lossy
Stream size : 435 MiB (6%)
Language : English
Service kind : Complete Main
Default : Yes
Forced : No

Text #1
ID : 3
Format : UTF-8
Codec ID : S_TEXT/UTF8
Codec ID/Info : UTF-8 Plain Text
Duration : 1 h 34 min
Bit rate : 100 b/s
Count of elements : 2089
Stream size : 69.3 KiB (0%)
Language : English
Default : No
Forced : No

Text #2
ID : 4
Format : UTF-8
Codec ID : S_TEXT/UTF8
Codec ID/Info : UTF-8 Plain Text
Duration : 1 h 34 min
Bit rate : 106 b/s
Count of elements : 2210
Stream size : 73.5 KiB (0%)
Title : SDH
Language : English
Default : No
Forced : No





1 个附件 售价 大小 下载 时间

Buffaloed.2019.1080p.AMZN.WEBRip.DDP5.1.x264-NTG.torrent 0 金币 34.76K 308 次 1月前

#1楼
发帖时间:2020-02-14 21:08:37   |   回复数:1
911degrees
隐世仙人♂
非常感谢,谢谢分享
1月前 #2楼
游客组