coor
一代宗师

[2019] [欧美] [惊悚] [BD-Remux] 丹尼尔不是真的/丹尼尔不是真实的 Daniel.Isnt.Real.2019.1080p.BluRay.REMUX.AVC.DTS-HD.MA.5.1-FGT

-->

帖子完整标题:丹尼尔不是真的/丹尼尔不是真实的 Daniel.Isnt.Real.2019.1080p.BluRay.REMUX.AVC.DTS-HD.MA.5.1-FGT 27.96GB




◎译  名 丹尼尔不是真的 / 丹尼尔不是真实的 / 鬼相伴
◎片  名 Daniel Isn't Real
◎年  代 2019
◎产  地 美国
◎类  别 惊悚 / 恐怖
◎语  言 英语
◎上映日期 2019-03-09(美国西南偏南电影节) / 2019-12-06(美国)
◎IMDb评分 6.0/10 from 1831 users
◎IMDb链接 https://www.imdb.com/title/tt8745960
◎豆瓣评分 5.4/10 from 188 users
◎豆瓣链接 https://movie.douban.com/subject/30282897/
◎片  长 96分钟
◎导  演 Adam Egypt Mortimer
◎编  剧 Brian DeLeeuw / Adam Egypt Mortimer
◎主  演 帕特里克·施瓦辛格 Patrick Schwarzenegger
      迈尔斯·罗宾斯 Miles Robbins
      萨莎·莱恩 Sasha Lane
      玛丽·斯图尔特·马斯特森 Mary Stuart Masterson
      汉娜·马克斯 Hannah Marks
      凯蒂·张 Katie Chang
      Michael Cuomo
      格里芬·罗伯特·福克纳 Griffin Robert Faulkner
      杰奎琳·霍努力克 Jacqueline Honulik
      Chukwudi Iwuji
      Andrew Bridges
      费斯·洛根 Faith Logan
      Andrew Ayala
      Jamar Greene
      Rosanne Ma


◎标  签 2019 | 美国 | 惊悚 | 恐怖 | 迷幻 | 超自然 | 美国电影 | 犯罪

◎简  介

  阿诺·施瓦辛格之子帕特里克·施瓦辛格、萨莎·莱恩([美国甜心])、蒂姆·罗宾斯之子迈尔斯·罗宾斯、汉娜·马克斯(《全能侦探社》)将主演惊悚片[丹尼尔不是真实的](Daniel Isn’t Real,暂译),影片由亚当·埃及·莫蒂默(Adam Egypt Mortimer)([复仇之灵])执导。故事根据布莱恩·德莱乌创作小说《我被这样拯救》(In This Way I Was Saved)改编,德莱乌与莫蒂默共同操刀剧本。讲述一个遭受家庭暴力创伤的大学新生,再次构想了他童年想象中的朋友丹尼尔。丹尼尔能够帮助他应对一切。该片已在纽约开拍。
Video
ID : 1
Format : AVC
Format/Info : Advanced Video Codec
Format profile : [email protected]
Format settings : CABAC / 3 Ref Frames
Format settings, CABAC : Yes
Format settings, Reference frames : 3 frames
Codec ID : V_MPEG4/ISO/AVC
Duration : 1 h 41 min
Bit rate mode : Variable
Bit rate : 33.3 Mb/s
Maximum bit rate : 36.0 Mb/s
Width : 1 920 pixels
Height : 1 080 pixels
Display aspect ratio : 16:9
Frame rate mode : Constant
Frame rate : 23.976 (24000/1001) FPS
Color space : YUV
Chroma subsampling : 4:2:0
Bit depth : 8 bits
Scan type : Progressive
Bits/(Pixel*Frame) : 0.669
Stream size : 23.7 GiB (85%)
Title : Daniel.Isnt.Real.2019.1080p.BluRay.REMUX.AVC.DTS-HD.MA.5.1-FGT
Language : English
Default : No
Forced : No
Color range : Limited
Color primaries : BT.709
Transfer characteristics : BT.709
Matrix coefficients : BT.709

Audio #1
ID : 2
Format : DTS XLL
Format/Info : Digital Theater Systems
Commercial name : DTS-HD Master Audio
Codec ID : A_DTS
Duration : 1 h 41 min
Bit rate mode : Variable
Bit rate : 3 391 kb/s
Channel(s) : 6 channels
Channel layout : C L R Ls Rs LFE
Sampling rate : 48.0 kHz
Frame rate : 93.750 FPS (512 SPF)
Bit depth : 24 bits
Compression mode : Lossless
Delay relative to video : 1 ms
Stream size : 2.41 GiB (9%)
Title : Daniel.Isnt.Real.2019.1080p.BluRay.REMUX.AVC.DTS-HD.MA.5.1-FGT
Language : English
Default : Yes
Forced : No

Audio #2
ID : 3
Format : PCM
Format settings : Little / Signed
Codec ID : A_PCM/INT/LIT
Duration : 1 h 41 min
Bit rate mode : Constant
Bit rate : 2 304 kb/s
Channel(s) : 2 channels
Sampling rate : 48.0 kHz
Frame rate : 30.000 FPS (1600 SPF)
Bit depth : 24 bits
Delay relative to video : 20 ms
Stream size : 1.64 GiB (6%)
Title : Daniel.Isnt.Real.2019.1080p.BluRay.REMUX.AVC.DTS-HD.MA.5.1-FGT
Language : English
Default : No
Forced : No

Audio #3
ID : 4
Format : AC-3
Format/Info : Audio Coding 3
Commercial name : Dolby Digital
Codec ID : A_AC3
Duration : 1 h 41 min
Bit rate mode : Constant
Bit rate : 320 kb/s
Channel(s) : 2 channels
Channel layout : L R
Sampling rate : 48.0 kHz
Frame rate : 31.250 FPS (1536 SPF)
Bit depth : 16 bits
Compression mode : Lossy
Delay relative to video : 12 ms
Stream size : 233 MiB (1%)
Title : Daniel.Isnt.Real.2019.1080p.BluRay.REMUX.AVC.DTS-HD.MA.5.1-FGT
Language : English
Service kind : Complete Main
Default : No
Forced : No

Text
ID : 5
Format : PGS
Muxing mode : zlib
Codec ID : S_HDMV/PGS
Codec ID/Info : Picture based subtitle format used on BDs/HD-DVDs
Duration : 1 h 31 min
Bit rate : 24.3 kb/s
Count of elements : 1840
Stream size : 15.9 MiB (0%)
Title : English-PGS
Language : English
Default : Yes
Forced : No

Menu
00:00:00.000 : en:Chapter 01
00:04:33.439 : en:Chapter 02
00:13:43.405 : en:Chapter 03
00:23:23.735 : en:Chapter 04
00:31:27.635 : en:Chapter 05
00:38:04.073 : en:Chapter 06
00:47:17.292 : en:Chapter 07
00:56:22.420 : en:Chapter 08
01:02:03.845 : en:Chapter 09
01:08:54.004 : en:Chapter 10
01:20:14.184 : en:Chapter 11
01:29:10.219 : en:Chapter 12





1 个附件 售价 大小 下载 时间

Daniel.Isnt.Real.2019.1080p.BluRay.REMUX.AVC.DTS-HD.MA.5.1-FGT.torrent 0 金币 70.47K 364 次 1月前

#1楼
发帖时间:2020-02-14 20:42:06   |   回复数:2
chulps
一代宗师
~ 珍惜+支持 ~
1月前 #2楼
911degrees
隐世仙人♂
非常感谢,谢谢分享
1月前 #3楼
游客组