coor
一代宗师

[2018] [韩国] [剧情] [BD-1080P] 人间空间时间和人 Human.Space.Time.and.Human.2018.1080p.BluRay.x264-BiPOLAR 7.65GB

-->

帖子完整标题:人间空间时间和人 Human.Space.Time.and.Human.2018.1080p.BluRay.x264-BiPOLAR 7.65GB




◎译  名 人间,空间,时间和人 / Human, Space, Time and Human / 人类的时间 / 人间时人(港) / 末日飞船(台) / 畸慾伊甸園(港)
◎片  名 ??, ??, ?? ??? ??
◎年  代 2018
◎产  地 韩国
◎类  别 剧情
◎语  言 韩语
◎上映日期 2018-02-18(柏林电影节)
◎IMDb评分 5.4/10 from 413 users
◎IMDb链接 https://www.imdb.com/title/tt6927316
◎豆瓣评分 6.1/10 from 5726 users
◎豆瓣链接 https://movie.douban.com/subject/27041677/
◎片  长 122分钟
◎导  演 金基德 Ki-duk Kim
◎编  剧 金基德 Ki-duk Kim
◎主  演 安圣基 Sung-kee Ahn
      张根硕 Keun-Suk Jang
      李成宰 Sung-jae Lee
      藤井美菜 Mina Fujii
      小田切让 J? Odagiri
      柳昇范 Seung-beom Ryu


◎标  签 金基德 | 韩国 | 人性 | 剧情 | 伦理 | 2018 | 情色 | 犯罪

◎简  介

  《人,空间,时间和人》讲述了一艘老军舰上不同年龄和职业的人之间发生的故事, 强奸,谋杀,兵变, 金基德没有给予片中的人物丝毫的放松时间。 电影中的所有人物既没有名字也没有背景,唯一重要的只有让人喘不过气来的“当下”。在一个戏剧性的人际关系的漩涡之中,一场关于食物和生存的斗争完全转向了荒诞。
Video
ID : 1
Format : AVC
Format/Info : Advanced Video Codec
Format profile : [email protected]
Format settings : CABAC / 4 Ref Frames
Format settings, CABAC : Yes
Format settings, Reference frames : 4 frames
Codec ID : V_MPEG4/ISO/AVC
Duration : 2 h 1 min
Bit rate : 8 387 kb/s
Width : 1 920 pixels
Height : 1 040 pixels
Display aspect ratio : 1.85:1
Frame rate mode : Constant
Frame rate : 24.000 FPS
Color space : YUV
Chroma subsampling : 4:2:0
Bit depth : 8 bits
Scan type : Progressive
Bits/(Pixel*Frame) : 0.175
Stream size : 7.11 GiB (93%)
Writing library : x264 core 157 r2969 d4099dd
Encoding settings : cabac=1 / ref=4 / deblock=1:-3:-3 / analyse=0x3:0x133 / me=umh / subme=9 / psy=1 / psy_rd=1.00:0.00 / mixed_ref=1 / me_range=16 / chroma_me=1 / trellis=2 / 8x8dct=1 / cqm=0 / deadzone=21,11 / fast_pskip=0 / chroma_qp_offset=-2 / threads=18 / lookahead_threads=1 / sliced_threads=0 / nr=0 / decimate=1 / interlaced=0 / bluray_compat=0 / constrained_intra=0 / bframes=3 / b_pyramid=2 / b_adapt=1 / b_bias=0 / direct=3 / weightb=1 / open_gop=0 / weightp=2 / keyint=240 / keyint_min=24 / scenecut=40 / intra_refresh=0 / rc_lookahead=50 / rc=2pass / mbtree=1 / bitrate=8387 / ratetol=1.0 / qcomp=0.60 / qpmin=0 / qpmax=69 / qpstep=4 / cplxblur=20.0 / qblur=0.5 / ip_ratio=1.40 / aq=1:1.00
Language : English
Default : Yes
Forced : No

Audio
ID : 2
Format : AC-3
Format/Info : Audio Coding 3
Commercial name : Dolby Digital
Codec ID : A_AC3
Duration : 2 h 1 min
Bit rate mode : Constant
Bit rate : 640 kb/s
Channel(s) : 6 channels
Channel layout : L R C LFE Ls Rs
Sampling rate : 48.0 kHz
Frame rate : 31.250 FPS (1536 SPF)
Bit depth : 16 bits
Compression mode : Lossy
Stream size : 556 MiB (7%)
Language : Korean
Service kind : Complete Main
Default : Yes
Forced : No

Text
ID : 3
Format : UTF-8
Codec ID : S_TEXT/UTF8
Codec ID/Info : UTF-8 Plain Text
Duration : 1 h 55 min
Bit rate : 29 b/s
Count of elements : 1108
Stream size : 25.1 KiB (0%)
Title : English
Language : English
Default : Yes
Forced : Yes

Menu
00:00:00.000 : en:00:00:00.000
00:06:21.542 : en:00:06:21.542
00:10:02.458 : en:00:10:02.458
00:18:09.667 : en:00:18:09.667
00:22:15.167 : en:00:22:15.167
00:27:45.750 : en:00:27:45.750
00:31:52.917 : en:00:31:52.917
00:37:41.292 : en:00:37:41.292
00:43:20.625 : en:00:43:20.625
00:50:50.250 : en:00:50:50.250
00:56:30.458 : en:00:56:30.458
01:00:56.542 : en:01:00:56.542
01:04:33.167 : en:01:04:33.167
01:11:33.083 : en:01:11:33.083
01:17:54.292 : en:01:17:54.292
01:23:32.625 : en:01:23:32.625
01:29:31.833 : en:01:29:31.833
01:36:38.708 : en:01:36:38.708
01:45:46.500 : en:01:45:46.500
01:58:10.917 : en:01:58:10.917





1 个附件 售价 大小 下载 时间

Human.Space.Time.and.Human.2018.1080p.BluRay.x264-BiPOLAR.torrent 0 金币 38.93K 791 次 1月前

#1楼
发帖时间:2020-02-14 17:32:31   |   回复数:1
911degrees
隐世仙人♂
非常感谢,谢谢分享
1月前 #2楼
游客组