coor
一代宗师

[2018] [其他] [剧情] [BD-1080P] 人民与国王 One.Nation.One.King.2018.1080p.BluRay.x264-BiPOLAR 8.75GB

-->

帖子完整标题:人民与国王 One.Nation.One.King.2018.1080p.BluRay.x264-BiPOLAR 8.75GB




◎译  名 人民与国王 / One Nation, One King / Révolution / 国王与平民
◎片  名 Un Peuple Et Son Roi
◎年  代 2018
◎产  地 法国
◎类  别 剧情 / 历史
◎语  言 法语
◎上映日期 2018-09-07(威尼斯电影节) / 2018-09-26(法国)
◎IMDb评分 6.0/10 from 786 users
◎IMDb链接 https://www.imdb.com/title/tt7073522
◎豆瓣评分 5.9/10 from 111 users
◎豆瓣链接 https://movie.douban.com/subject/26775526/
◎片  长 121分钟
◎导  演 皮埃尔·苏勒 Pierre Sch?ller
◎编  剧 皮埃尔·苏勒 Pierre Sch?ller
◎主  演 加斯帕德·尤利尔 Gaspard Ulliel
      路易·加瑞尔 Louis Garrel
      德尼·拉旺 Denis Lavant
      尼尔斯·施内德 Niels Schneider
      阿黛拉·哈内尔 Adèle Haenel
      罗兰·拉斐特 Laurent Lafitte
      席琳·萨莱特 Céline Sallette
      伊兹雅·海格林 Iz?a Higelin
      奥利弗·古尔迈 Olivier Gourmet
      诺薇米·洛夫斯基 Noémie Lvovsky
      约翰·利伯欧 Johan Libéreau
      安杰列·查拉 Andrzej Chyra
      Jean-Marc Roulot


◎标  签 法国 | 历史 | 法国电影 | 2018 | 剧情 | 政治 | LouisGarrel | 古装

◎简  介

  法国全明星阵容,讲述了1789年的法国,在一部鼓舞人心的史诗戏剧中,通过那些站起来开创历史的人们的眼睛讲述了法国大革命。

◎获奖情况

  第44届法国凯撒电影奖(2019)
  最佳服装(提名)

  第2届平遥国际电影展(2018)
  首映单元最受欢迎影片(提名) 皮埃尔·苏勒
Video
ID : 1
Format : AVC
Format/Info : Advanced Video Codec
Format profile : [email protected]
Format settings : CABAC / 4 Ref Frames
Format settings, CABAC : Yes
Format settings, Reference frames : 4 frames
Codec ID : V_MPEG4/ISO/AVC
Duration : 2 h 1 min
Bit rate : 8 759 kb/s
Width : 1 920 pixels
Height : 1 040 pixels
Display aspect ratio : 1.85:1
Frame rate mode : Constant
Frame rate : 23.976 (24000/1001) FPS
Color space : YUV
Chroma subsampling : 4:2:0
Bit depth : 8 bits
Scan type : Progressive
Bits/(Pixel*Frame) : 0.183
Stream size : 7.46 GiB (85%)
Writing library : x264 core 157 r2969 d4099dd
Encoding settings : cabac=1 / ref=4 / deblock=1:-3:-3 / analyse=0x3:0x133 / me=umh / subme=9 / psy=1 / psy_rd=1.00:0.00 / mixed_ref=1 / me_range=16 / chroma_me=1 / trellis=2 / 8x8dct=1 / cqm=0 / deadzone=21,11 / fast_pskip=0 / chroma_qp_offset=-2 / threads=18 / lookahead_threads=1 / sliced_threads=0 / nr=0 / decimate=1 / interlaced=0 / bluray_compat=0 / constrained_intra=0 / bframes=3 / b_pyramid=2 / b_adapt=1 / b_bias=0 / direct=3 / weightb=1 / open_gop=0 / weightp=2 / keyint=240 / keyint_min=24 / scenecut=40 / intra_refresh=0 / rc_lookahead=50 / rc=2pass / mbtree=1 / bitrate=8759 / ratetol=1.0 / qcomp=0.60 / qpmin=0 / qpmax=69 / qpstep=4 / cplxblur=20.0 / qblur=0.5 / ip_ratio=1.40 / aq=1:1.00
Language : English
Default : Yes
Forced : No

Audio
ID : 2
Format : DTS
Format/Info : Digital Theater Systems
Codec ID : A_DTS
Duration : 2 h 1 min
Bit rate mode : Constant
Bit rate : 1 509 kb/s
Channel(s) : 6 channels
Channel layout : C L R Ls Rs LFE
Sampling rate : 48.0 kHz
Frame rate : 93.750 FPS (512 SPF)
Bit depth : 24 bits
Compression mode : Lossy
Stream size : 1.29 GiB (15%)
Language : French
Default : Yes
Forced : No

Text #1
ID : 3
Format : UTF-8
Codec ID : S_TEXT/UTF8
Codec ID/Info : UTF-8 Plain Text
Duration : 2 h 0 min
Bit rate : 44 b/s
Count of elements : 1466
Stream size : 39.4 KiB (0%)
Title : English
Language : English
Default : Yes
Forced : Yes

Text #2
ID : 4
Format : UTF-8
Codec ID : S_TEXT/UTF8
Codec ID/Info : UTF-8 Plain Text
Duration : 2 h 1 min
Bit rate : 53 b/s
Count of elements : 1634
Stream size : 47.3 KiB (0%)
Title : French
Language : French
Default : No
Forced : No

Menu
00:00:00.000 : en:00:00:00.000
00:11:05.665 : en:00:11:05.665
00:20:55.087 : en:00:20:55.087
00:31:07.532 : en:00:31:07.532
00:41:02.168 : en:00:41:02.168
00:51:05.980 : en:00:51:05.980
01:03:09.369 : en:01:03:09.369
01:13:39.999 : en:01:13:39.999
01:23:59.117 : en:01:23:59.117
01:33:58.091 : en:01:33:58.091
01:46:31.719 : en:01:46:31.719
01:56:10.964 : en:01:56:10.964





1 个附件 售价 大小 下载 时间

One.Nation.One.King.2018.1080p.BluRay.x264-BiPOLAR.torrent 0 金币 44.38K 399 次 1月前

#1楼
发帖时间:2020-02-14 17:26:34   |   回复数:1
911degrees
隐世仙人♂
非常感谢,谢谢分享
1月前 #2楼
游客组