coor
一代宗师

[2019] [其他] [奇幻] [BD-3D] 沉睡魔咒2 Maleficent.Mistress.of.Evil.2019.1080p.3D.BluRay.Half-SBS.x264.DTS-HD.MA.7

-->

帖子完整标题:沉睡魔咒2 Maleficent.Mistress.of.Evil.2019.1080p.3D.BluRay.Half-SBS.x264.DTS-HD.MA.7.1-FGT 18.80GB




◎译  名 沉睡魔咒2 / Maleficent 2 / 沉睡魔咒2:恶魔夫人 / 玛琳菲森2 / 黑魔后2(港) / 黑魔女2(台)
◎片  名 Maleficent: Mistress of Evil
◎年  代 2019
◎产  地 美国 / 英国
◎类  别 奇幻 / 冒险
◎语  言 英语
◎上映日期 2019-10-18(美国/中国大陆)
◎IMDb评分 6.7/10 from 51919 users
◎IMDb链接 https://www.imdb.com/title/tt4777008
◎豆瓣评分 6.1/10 from 100094 users
◎豆瓣链接 https://movie.douban.com/subject/26426056/
◎片  长 119分钟
◎导  演 乔阿吉姆·罗恩尼 Joachim R?nning
◎编  剧 迈卡·费兹曼-布卢 Micah Fitzerman-Blue / 诺亚·哈普斯特 Noah Harpster / 琳达·伍尔芙顿 Linda Woolverton
◎主  演 安吉丽娜·朱莉 Angelina Jolie
      艾丽·范宁 Elle Fanning
      米歇尔·菲佛 Michelle Pfeiffer
      萨姆·赖利 Sam Riley
      哈里斯·迪金森 Harris Dickinson
      艾德·斯克林 Ed Skrein
      切瓦特·埃加福特 Chiwetel Ejiofor
      朱诺·坦普尔 Juno Temple
      艾美达·斯丹顿 Imelda Staunton
      卡·亚历山大 Kae Alexander
      莱丝利·曼维尔 Lesley Manville
      弗莱迪·怀斯 Freddie Wise
      詹·穆瑞 Jenn Murray
      石原贵雅 Miyavi
      大卫·吉雅西 David Gyasi
      罗伯特·林德森 Robert Lindsay
      朱迪斯·沙克妮 Judith Shekoni
      伯纳多·桑托斯 Bernardo Santos
      萨克·霍兰 Zak Holland
      巴里·艾尔德 Barry Aird
      耶斯·利奥丹 Jess Liaudin
      拉塞尔·巴洛格 Russell Balogh
      拉亚·坎普贝尔 Rayna Campbell
      斯嘉丽·格兰特 Scarlett Grant
      汤姆·伯宁顿 Tom Bonington
      阿克塞尔·努 Axel Nu
      特蕾莎·马奥尼 Teresa Mahoney
      John Carew


◎标  签 迪士尼 | 魔幻 | 奇幻 | 童话改编 | 美国 | 2019 | 美 | 女性

◎简  介

  《沉睡魔咒》续集将讲述魔女玛琳菲森(朱莉)和将成为女王的爱洛公主(范宁)关系缓和但依旧复杂,但两人要联手对付新的反派,保护森林王国和那里神奇的动物们。

◎获奖情况

  第92届奥斯卡金像奖(2020)
  最佳化妆与发型设计(提名)

  第24届美国艺术指导工会奖(2020)
  电影奖 最佳幻想电影艺术指导(提名) 帕特里克·塔特普洛斯

  第22届美国服装设计工会奖(2020)
  科幻/奇幻题材电影最佳服装设计 艾伦·米罗伊尼克

  第7届美国化妆及发型设计工会奖(2020)
  电影类最佳年代戏发型设计(提名)

  第40届伦敦影评人协会奖(2020)
  年度英国/爱尔兰女演员(提名) 莱丝利·曼维尔
Video
ID : 1
Format : AVC
Format/Info : Advanced Video Codec
Format profile : [email protected]
Format settings : CABAC / 3 Ref Frames
Format settings, CABAC : Yes
Format settings, Reference frames : 3 frames
Codec ID : V_MPEG4/ISO/AVC
Duration : 1 h 58 min
Bit rate : 15.5 Mb/s
Width : 1 920 pixels
Height : 1 080 pixels
Display aspect ratio : 16:9
Frame rate mode : Constant
Frame rate : 23.976 (24000/1001) FPS
Color space : YUV
Chroma subsampling : 4:2:0
Bit depth : 8 bits
Scan type : Progressive
Bits/(Pixel*Frame) : 0.312
Stream size : 12.7 GiB (67%)
Title : Maleficent.Mistress.of.Evil.2019.1080p.3D.BluRay.Half-SBS.x264.DTS-HD.MA.7.1-FGT
Writing library : x264 core 148
Encoding settings : cabac=1 / ref=3 / deblock=1:-1:-1 / analyse=0x3:0 / me=hex / subme=5 / psy=1 / psy_rd=1.00:0.00 / mixed_ref=0 / me_range=16 / chroma_me=1 / trellis=1 / 8x8dct=1 / cqm=0 / deadzone=21,11 / fast_pskip=0 / chroma_qp_offset=0 / threads=24 / lookahead_threads=6 / sliced_threads=0 / nr=0 / decimate=1 / interlaced=0 / bluray_compat=0 / constrained_intra=0 / bframes=2 / b_pyramid=0 / b_adapt=1 / b_bias=0 / direct=1 / weightb=0 / open_gop=0 / weightp=0 / keyint=24 / keyint_min=2 / scenecut=40 / intra_refresh=0 / rc=abr / mbtree=0 / bitrate=15500 / ratetol=1.0 / qcomp=0.60 / qpmin=0 / qpmax=69 / qpstep=4 / ip_ratio=1.40 / pb_ratio=1.30 / aq=1:1.00
Default : Yes
Forced : No
Color range : Limited
Color primaries : BT.709
Transfer characteristics : BT.709
Matrix coefficients : BT.709

Audio #1
ID : 2
Format : DTS XLL
Format/Info : Digital Theater Systems
Commercial name : DTS-HD Master Audio
Codec ID : A_DTS
Duration : 1 h 58 min
Bit rate mode : Variable
Bit rate : 5 249 kb/s
Channel(s) : 8 channels
Channel layout : C L R LFE Lb Rb Lss Rss
Sampling rate : 48.0 kHz
Frame rate : 93.750 FPS (512 SPF)
Bit depth : 24 bits
Compression mode : Lossless
Stream size : 4.36 GiB (23%)
Title : Maleficent.Mistress.of.Evil.2019.1080p.3D.BluRay.Half-SBS.x264.DTS-HD.MA.7.1-FGT
Language : English
Default : Yes
Forced : No

Audio #2
ID : 3
Format : AC-3
Format/Info : Audio Coding 3
Commercial name : Dolby Digital
Codec ID : A_AC3
Duration : 1 h 58 min
Bit rate mode : Constant
Bit rate : 320 kb/s
Channel(s) : 2 channels
Channel layout : L R
Sampling rate : 48.0 kHz
Frame rate : 31.250 FPS (1536 SPF)
Bit depth : 16 bits
Compression mode : Lossy
Stream size : 272 MiB (1%)
Title : Maleficent.Mistress.of.Evil.2019.1080p.3D.BluRay.Half-SBS.x264.DTS-HD.MA.7.1-FGT
Language : English
Service kind : Complete Main
Default : No
Forced : No

Audio #3
ID : 4
Format : E-AC-3
Format/Info : Enhanced AC-3
Commercial name : Dolby Digital Plus
Format profile : Blu-ray Disc
Codec ID : A_EAC3
Duration : 1 h 58 min
Bit rate mode : Constant
Bit rate : 896 kb/s
Channel(s) : 8 channels
Channel layout : L R C LFE Ls Rs Lb Rb
Sampling rate : 48.0 kHz
Frame rate : 31.250 FPS (1536 SPF)
Compression mode : Lossy
Stream size : 762 MiB (4%)
Title : Maleficent.Mistress.of.Evil.2019.1080p.3D.BluRay.Half-SBS.x264.DTS-HD.MA.7.1-FGT
Language : French
Service kind : Complete Main
Default : No
Forced : No

Audio #4
ID : 5
Format : E-AC-3
Format/Info : Enhanced AC-3
Commercial name : Dolby Digital Plus
Format profile : Blu-ray Disc
Codec ID : A_EAC3
Duration : 1 h 58 min
Bit rate mode : Constant
Bit rate : 896 kb/s
Channel(s) : 8 channels
Channel layout : L R C LFE Ls Rs Lb Rb
Sampling rate : 48.0 kHz
Frame rate : 31.250 FPS (1536 SPF)
Compression mode : Lossy
Stream size : 762 MiB (4%)
Title : Maleficent.Mistress.of.Evil.2019.1080p.3D.BluRay.Half-SBS.x264.DTS-HD.MA.7.1-FGT
Language : German
Service kind : Complete Main
Default : No
Forced : No

Text #1
ID : 6
Format : PGS
Muxing mode : zlib
Codec ID : S_HDMV/PGS
Codec ID/Info : Picture based subtitle format used on BDs/HD-DVDs
Duration : 1 h 53 min
Bit rate : 42.2 kb/s
Count of elements : 3210
Stream size : 34.1 MiB (0%)
Title : English-PGS
Language : English
Default : Yes
Forced : No

Text #2
ID : 7
Format : PGS
Muxing mode : zlib
Codec ID : S_HDMV/PGS
Codec ID/Info : Picture based subtitle format used on BDs/HD-DVDs
Duration : 1 h 57 min
Bit rate : 25.8 kb/s
Count of elements : 1960
Stream size : 21.6 MiB (0%)
Title : French-PGS
Language : French
Default : No
Forced : No

Menu
00:00:00.000 : en:Chapter 01
00:06:47.907 : en:Chapter 02
00:09:11.676 : en:Chapter 03
00:14:45.551 : en:Chapter 04
00:19:27.833 : en:Chapter 05
00:23:10.555 : en:Chapter 06
00:33:51.904 : en:Chapter 07
00:39:10.264 : en:Chapter 08
00:42:19.578 : en:Chapter 09
00:48:31.992 : en:Chapter 10
00:52:44.744 : en:Chapter 11
00:57:15.140 : en:Chapter 12
00:59:26.145 : en:Chapter 13
01:05:47.568 : en:Chapter 14
01:09:31.750 : en:Chapter 15
01:19:07.242 : en:Chapter 16
01:22:48.546 : en:Chapter 17
01:29:09.218 : en:Chapter 18
01:35:00.653 : en:Chapter 19
01:44:26.510 : en:Chapter 20
01:51:06.993 : en:Chapter 21





1 个附件 售价 大小 下载 时间

Maleficent.Mistress.of.Evil.2019.1080p.3D.BluRay.Half-SBS.x264.DTS-HD.MA.7.1-FGT.torrent 0 金币 94.62K 504 次 1月前

#1楼
发帖时间:2020-02-14 17:18:35   |   回复数:3
911degrees
隐世仙人♂
非常感谢,谢谢分享
1月前 #2楼
jokingcheung
一代宗师
谢谢分享
1月前 #3楼
liyouchai
隐世仙人♂
谢谢楼主分享资源
1月前 #4楼
游客组