coor
一代宗师

[2018] [欧美] [剧情] [BD-1080P] 群山 The.Mountain.2018.1080p.BluRay.x264-BiPOLAR 8.75GB

-->

帖子完整标题:群山 The.Mountain.2018.1080p.BluRay.x264-BiPOLAR 8.75GB




◎译  名 群山
◎片  名 The Mountain
◎年  代 2018
◎产  地 美国
◎类  别 剧情
◎语  言 英语
◎上映日期 2018-08-30(威尼斯电影节)
◎IMDb评分 5.6/10 from 954 users
◎IMDb链接 https://www.imdb.com/title/tt7950334
◎豆瓣评分 5.9/10 from 167 users
◎豆瓣链接 https://movie.douban.com/subject/30149810/
◎片  长 106分钟
◎导  演 瑞克·艾弗森 Rick Alverson
◎编  剧 瑞克·艾弗森 Rick Alverson / Dustin Guy Defa / 科姆·奥利里 Colm O'Leary
◎主  演 泰伊·谢里丹 Tye Sheridan
      杰夫·高布伦 Jeff Goldblum
      汉娜·格罗斯 Hannah Gross
      德尼·拉旺 Denis Lavant
      乌多·基尔 Udo Kier
      安玛丽·劳莱丝 Annemarie Lawless
      艾米·斯蒂勒 Amy Stiller
      拉瑞·凡斯登 Larry Fessenden
      维尼·考克斯 Veanne Cox
      巴迪·杜瑞斯 Buddy Duress
      苏珊·阿瑟 Susan Aser
      丹妮尔·史密斯 Danielle Smith


◎标  签 美国 | 2018 | 剧情 | 威尼斯电影节 | 瑞克·艾弗森 | 实验 | 杰夫·高布伦 | Sheridan

◎简  介

  一位年轻男子在失去母亲后,与一名专门从事切除术和治疗的医生一起工作的故事。

◎获奖情况

  第75届威尼斯电影节(2018)
  主竞赛单元 金狮奖 (提名) 瑞克·艾弗森
Video
ID : 1
Format : AVC
Format/Info : Advanced Video Codec
Format profile : [email protected]
Format settings : CABAC / 4 Ref Frames
Format settings, CABAC : Yes
Format settings, Reference frames : 4 frames
Codec ID : V_MPEG4/ISO/AVC
Duration : 1 h 49 min
Bit rate : 9 947 kb/s
Width : 1 440 pixels
Height : 1 080 pixels
Display aspect ratio : 4:3
Frame rate mode : Constant
Frame rate : 23.976 (24000/1001) FPS
Color space : YUV
Chroma subsampling : 4:2:0
Bit depth : 8 bits
Scan type : Progressive
Bits/(Pixel*Frame) : 0.267
Stream size : 7.59 GiB (87%)
Writing library : x264 core 157 r2969 d4099dd
Encoding settings : cabac=1 / ref=4 / deblock=1:-3:-3 / analyse=0x3:0x133 / me=umh / subme=9 / psy=1 / psy_rd=1.00:0.00 / mixed_ref=1 / me_range=16 / chroma_me=1 / trellis=2 / 8x8dct=1 / cqm=0 / deadzone=21,11 / fast_pskip=0 / chroma_qp_offset=-2 / threads=18 / lookahead_threads=1 / sliced_threads=0 / nr=0 / decimate=1 / interlaced=0 / bluray_compat=0 / constrained_intra=0 / bframes=3 / b_pyramid=2 / b_adapt=1 / b_bias=0 / direct=3 / weightb=1 / open_gop=0 / weightp=2 / keyint=240 / keyint_min=24 / scenecut=40 / intra_refresh=0 / rc_lookahead=50 / rc=2pass / mbtree=1 / bitrate=9947 / ratetol=1.0 / qcomp=0.60 / qpmin=0 / qpmax=69 / qpstep=4 / cplxblur=20.0 / qblur=0.5 / ip_ratio=1.40 / aq=1:1.00
Language : English
Default : Yes
Forced : No

Audio
ID : 2
Format : DTS
Format/Info : Digital Theater Systems
Codec ID : A_DTS
Duration : 1 h 49 min
Bit rate mode : Constant
Bit rate : 1 509 kb/s
Channel(s) : 6 channels
Channel layout : C L R Ls Rs LFE
Sampling rate : 48.0 kHz
Frame rate : 93.750 FPS (512 SPF)
Bit depth : 24 bits
Compression mode : Lossy
Stream size : 1.15 GiB (13%)
Language : English
Default : Yes
Forced : No

Text #1
ID : 3
Format : UTF-8
Codec ID : S_TEXT/UTF8
Codec ID/Info : UTF-8 Plain Text
Duration : 1 h 44 min
Bit rate : 13 b/s
Count of elements : 421
Stream size : 10.1 KiB (0%)
Title : English
Language : English
Default : No
Forced : No

Text #2
ID : 4
Format : UTF-8
Codec ID : S_TEXT/UTF8
Codec ID/Info : UTF-8 Plain Text
Duration : 1 h 46 min
Bit rate : 20 b/s
Count of elements : 917
Stream size : 16.1 KiB (0%)
Title : English SDH
Language : English
Default : No
Forced : No

Text #3
ID : 5
Format : UTF-8
Codec ID : S_TEXT/UTF8
Codec ID/Info : UTF-8 Plain Text
Duration : 1 h 36 min
Bit rate : 13 b/s
Count of elements : 410
Stream size : 9.76 KiB (0%)
Title : French
Language : French
Default : No
Forced : No

Menu
00:00:00.000 : en:00:00:00.000
00:10:24.707 : en:00:10:24.707
00:22:10.412 : en:00:22:10.412
00:33:55.909 : en:00:33:55.909
00:44:02.640 : en:00:44:02.640
00:57:08.800 : en:00:57:08.800
01:09:25.453 : en:01:09:25.453
01:21:23.087 : en:01:21:23.087
01:31:21.726 : en:01:31:21.726
01:39:22.957 : en:01:39:22.957





1 个附件 售价 大小 下载 时间

The.Mountain.2018.1080p.BluRay.x264-BiPOLAR.torrent 0 金币 44.37K 273 次 1月前

#1楼
发帖时间:2020-02-14 17:14:37   |   回复数:1
911degrees
隐世仙人♂
非常感谢,谢谢分享
1月前 #2楼
游客组