coor
一代宗师

[2019] [欧美] [喜剧] [BD-1080P] 冰雪奇缘2 Frozen.II.2019.1080p.BluRay.x264-YOL0W 5.49GB

-->

帖子完整标题:冰雪奇缘2 Frozen.II.2019.1080p.BluRay.x264-YOL0W 5.49GB




◎译  名 冰雪奇缘2 / Frozen 2 / 魔雪奇缘2(港)
◎片  名 Frozen II
◎年  代 2019
◎产  地 美国
◎类  别 喜剧 / 动画 / 歌舞 / 冒险
◎语  言 英语
◎上映日期 2019-11-22(美国/中国大陆)
◎IMDb评分 7.2/10 from 65728 users
◎IMDb链接 https://www.imdb.com/title/tt4520988
◎豆瓣评分 7.2/10 from 192944 users
◎豆瓣链接 https://movie.douban.com/subject/25887288/
◎片  长 104分钟
◎导  演 克里斯·巴克 Chris Buck / 珍妮弗·李 Jennifer Lee
◎编  剧 珍妮弗·李 Jennifer Lee / 克里斯·巴克 Chris Buck / 马克·史密斯 Marc Smith / 克里斯汀·安德森·洛佩兹 Kristen Anderson-Lopez / 罗伯特·洛佩兹 Robert Lopez
◎主  演 克里斯汀·贝尔 Kristen Bell
      伊迪娜·门泽尔 Idina Menzel
      乔什·加德 Josh Gad
      乔纳森·格罗夫 Jonathan Groff
      杰森·雷特 Jason Ritter
      埃文·蕾切尔·伍德 Evan Rachel Wood
      斯特林·K·布朗 Sterling K. Brown
      玛莎·普林顿 Martha Plimpton
      圣蒂诺·方塔纳 Santino Fontana
      阿尔弗雷德·莫里纳 Alfred Molina
      瑞秋·马休斯 Rachel Matthews


◎标  签 迪士尼 | 动画 | 童话 | 美国 | 音乐 | 2019 | 奇幻 | 魔幻

◎简  介

  2013年迪士尼《冰雪奇缘》续集。安娜、艾莎一伙人将深入神秘魔法森林,发现到艾伦戴尔王国长久以来深藏的秘密,一个有着风火水土元素的魔法国度,以及艾莎魔法来源的真相。

◎获奖情况

  第92届奥斯卡金像奖(2020)
  最佳原创歌曲(提名) 克里斯汀·安德森·洛佩兹 / 罗伯特·洛佩兹

  第77届金球奖(2020)
  电影类 最佳动画长片(提名)
  电影类 最佳原创歌曲(提名)

  第73届英国电影学院奖(2020)
  电影奖 最佳动画片(提名)

  第47届动画安妮奖(2020)
  最佳动画长片(提名)
  最佳导演(提名) 克里斯·巴克 / 珍妮弗·李
  最佳编剧(提名) 珍妮弗·李
  最佳配音 乔什·加德
  最佳配乐(提名) 弗罗德·弗杰尔海姆 / 克里斯汀·安德森·洛佩兹 / 罗伯特·洛佩兹 / 克里斯托弗·贝克
  最佳动画角色(提名)
  最佳角色设计(提名)
  最佳动画效果

  第31届美国制片人工会奖(2020)
  最佳动画片制片人奖(提名)

  第70届美国剪辑工会奖(2020)
  动画片最佳剪辑(提名) 杰夫·德拉海姆

  第24届美国艺术指导工会奖(2020)
  电影奖 最佳动画电影艺术指导(提名) Michael Giaimo

  第67届美国音效剪辑协会奖(2020)
  金卷轴奖 最佳动画片音效剪辑(提名)
  金卷轴奖 最佳音乐片音乐剪辑(提名)

  第18届美国视觉效果协会奖(2020)
  最佳动画电影视觉效果(提名)
  最佳动画电影CG动画角色(提名)
  最佳动画电影CG背景(提名)
  最佳动画电影模拟动画效果

  第56届美国声音效果协会奖(2020)
  动画电影最佳音效(提名)

  第25届美国评论家选择电影奖(2020)
  最佳动画片(提名)
  最佳歌曲(提名)

  第24届金卫星奖(2020)
  电影部门 最佳原创歌曲(提名)

  第32届芝加哥影评人协会奖(2019)
  最佳动画片(提名)

  第23届美国在线影评人协会奖(2020)
  最佳动画片(提名)
Video
ID : 1
Format : AVC
Format/Info : Advanced Video Codec
Format profile : [email protected]
Format settings : CABAC / 5 Ref Frames
Format settings, CABAC : Yes
Format settings, Reference frames : 5 frames
Codec ID : V_MPEG4/ISO/AVC
Duration : 1 h 43 min
Bit rate : 6 061 kb/s
Width : 1 920 pixels
Height : 808 pixels
Display aspect ratio : 2.40:1
Frame rate mode : Constant
Frame rate : 23.976 (24000/1001) FPS
Color space : YUV
Chroma subsampling : 4:2:0
Bit depth : 8 bits
Scan type : Progressive
Bits/(Pixel*Frame) : 0.163
Stream size : 4.37 GiB (80%)
Writing library : x264 core 159 r2991 1771b55
Encoding settings : cabac=1 / ref=5 / deblock=1:-3:-3 / analyse=0x3:0x133 / me=umh / subme=7 / psy=1 / psy_rd=1.00:0.00 / mixed_ref=1 / me_range=16 / chroma_me=1 / trellis=2 / 8x8dct=1 / cqm=0 / deadzone=21,11 / fast_pskip=1 / chroma_qp_offset=-2 / threads=16 / lookahead_threads=2 / sliced_threads=0 / nr=0 / decimate=1 / interlaced=0 / bluray_compat=0 / constrained_intra=0 / bframes=3 / b_pyramid=2 / b_adapt=2 / b_bias=0 / direct=3 / weightb=1 / open_gop=0 / weightp=2 / keyint=250 / keyint_min=23 / scenecut=40 / intra_refresh=0 / rc_lookahead=50 / rc=2pass / mbtree=1 / bitrate=6061 / ratetol=1.0 / qcomp=0.60 / qpmin=0 / qpmax=69 / qpstep=4 / cplxblur=20.0 / qblur=0.5 / ip_ratio=1.40 / aq=1:1.00
Language : English
Default : Yes
Forced : No
Color range : Limited
Matrix coefficients : BT.709

Audio
ID : 2
Format : DTS
Format/Info : Digital Theater Systems
Codec ID : A_DTS
Duration : 1 h 43 min
Bit rate mode : Constant
Bit rate : 1 509 kb/s
Channel(s) : 6 channels
Channel layout : C L R Ls Rs LFE
Sampling rate : 48.0 kHz
Frame rate : 93.750 FPS (512 SPF)
Bit depth : 24 bits
Compression mode : Lossy
Stream size : 1.09 GiB (20%)
Title : English
Language : English
Default : Yes
Forced : No

Menu
00:00:00.000 : en:Chapter 01
00:05:42.592 : en:Chapter 02
00:08:27.716 : en:Chapter 03
00:15:01.400 : en:Chapter 04
00:16:29.655 : en:Chapter 05
00:21:25.117 : en:Chapter 06
00:25:45.252 : en:Chapter 07
00:29:08.914 : en:Chapter 08
00:33:45.023 : en:Chapter 09
00:40:27.216 : en:Chapter 10
00:44:37.925 : en:Chapter 11
00:47:42.318 : en:Chapter 12
00:53:04.515 : en:Chapter 13
00:55:27.241 : en:Chapter 14
01:02:36.711 : en:Chapter 15
01:09:57.527 : en:Chapter 16
01:13:48.382 : en:Chapter 17
01:19:26.637 : en:Chapter 18
01:24:28.146 : en:Chapter 19
01:31:17.263 : en:Chapter 20





1 个附件 售价 大小 下载 时间

Frozen.II.2019.1080p.BluRay.x264-YOL0W.torrent 0 金币 28.29K 847 次 1月前

#1楼
发帖时间:2020-02-14 17:00:27   |   回复数:3
911degrees
隐世仙人♂
非常感谢,谢谢分享
1月前 #2楼
jokingcheung
一代宗师
谢谢分享
1月前 #3楼
film_leon
武林高手
6声道格式好评,谢谢分享~
1月前 #4楼
游客组