coor
一代宗师

[2018] [其他] [科幻] [BD-1080P] 海市蜃楼 Mirage.2018.SPANISH.1080p.BluRay.x264-HANDJOB 8.39GB

-->

帖子完整标题:海市蜃楼 Mirage.2018.SPANISH.1080p.BluRay.x264-HANDJOB 8.39GB




◎译  名 海市蜃楼 / During the Storm / Mirage / 暴风雨的幻象 / 风暴
◎片  名 Durante la tormenta
◎年  代 2018
◎产  地 西班牙
◎类  别 科幻 / 悬疑 / 惊悚
◎语  言 西班牙语
◎上映日期 2018-11-30(西班牙) / 2019-03-28(中国大陆)
◎IMDb评分 7.4/10 from 26074 users
◎IMDb链接 https://www.imdb.com/title/tt6908274
◎豆瓣评分 7.8/10 from 246063 users
◎豆瓣链接 https://movie.douban.com/subject/30164448/
◎片  长 128分钟
◎导  演 奥里奥尔·保罗 Oriol Paulo
◎编  剧 奥里奥尔·保罗 Oriol Paulo / 拉拉·森迪姆 Lara Sendim
◎主  演 阿德里亚娜·乌加特 Adriana Ugarte
      奇诺·达林 Chino Darín
      阿尔瓦罗·莫奇 álvaro Morte
      诺拉·纳瓦斯 Nora Navas
      哈维尔·古铁雷斯 Javier Gutiérrez
      米格尔·费南德斯 Miquel Fernández
      克拉拉·塞古拉 Clara Segura
      米玛·里埃拉 Mima Riera
      艾娜·克洛特 Aina Clotet
      阿尔伯特·佩雷斯 Albert Pérez
      弗兰塞斯克·奥雷利亚 Francesc Orella
      阿娜·瓦格纳 Ana Wagener
      西尔维亚·阿隆索 Silvia Alonso
      贝伦·鲁埃达 Belén Rueda


◎标  签 悬疑 | 西班牙 | 平行宇宙 | 烧脑 | 时空 | 科幻 | 剧情 | 惊悚

◎简  介

  小男孩尼克(胡里奥·博希加斯 Julio Bohigas-Couto 饰)在一个风雨交加的夜晚目睹了邻居安吉尔(哈维尔·古铁雷斯 Javier Gutiérrez 饰)杀害自己妻子的场面。在和安吉尔的追逐之中,一辆车将尼克撞倒,导致了他的死亡。一晃眼多年过去,薇拉(阿德丽安娜·尤加特 Adriana Ugarte 饰)和丈夫大卫(阿尔瓦罗·莫奇 álvaro Morte 饰)带着他们的女儿住进了尼克曾经居住过的房子。
  有一个电闪雷鸣的夜晚,薇拉意外的在电视里看到了尼克,让薇拉感到震惊的是,自己似乎能够通过电视和25年前的尼克对话。在薇拉的告诫之下,尼克免于一死,但过去的改变也牵连着薇拉的生活发生了巨变。大卫不再是薇拉的丈夫,而他们的女儿自然也不复存在。

◎获奖情况

  第6届豆瓣电影年度榜单(2019)
  评分最高的科幻/动作片(提名)
Video
ID : 1
Format : AVC
Format/Info : Advanced Video Codec
Format profile : [email protected]
Format settings : CABAC / 5 Ref Frames
Format settings, CABAC : Yes
Format settings, Reference frames : 5 frames
Codec ID : V_MPEG4/ISO/AVC
Duration : 2 h 8 min
Bit rate : 8 664 kb/s
Width : 1 920 pixels
Height : 800 pixels
Display aspect ratio : 2.40:1
Frame rate mode : Constant
Frame rate : 23.976 (24000/1001) FPS
Color space : YUV
Chroma subsampling : 4:2:0
Bit depth : 8 bits
Scan type : Progressive
Bits/(Pixel*Frame) : 0.235
Stream size : 7.80 GiB (93%)
Writing library : x264 core 157 r2935 545de2f
Encoding settings : cabac=1 / ref=5 / deblock=1:-3:-3 / analyse=0x3:0x133 / me=umh / subme=10 / psy=1 / psy_rd=1.00:0.00 / mixed_ref=1 / me_range=32 / chroma_me=1 / trellis=2 / 8x8dct=1 / cqm=0 / deadzone=21,11 / fast_pskip=0 / chroma_qp_offset=-2 / threads=18 / lookahead_threads=4 / sliced_threads=0 / nr=0 / decimate=0 / interlaced=0 / bluray_compat=0 / constrained_intra=0 / bframes=16 / b_pyramid=2 / b_adapt=2 / b_bias=0 / direct=3 / weightb=1 / open_gop=0 / weightp=2 / keyint=240 / keyint_min=24 / scenecut=40 / intra_refresh=0 / rc_lookahead=60 / rc=crf / mbtree=0 / crf=15.0 / qcomp=0.60 / qpmin=0 / qpmax=69 / qpstep=4 / vbv_maxrate=62500 / vbv_bufsize=78125 / crf_max=0.0 / nal_hrd=none / filler=0 / ip_ratio=1.40 / pb_ratio=1.30 / aq=2:1.00
Default : Yes
Forced : No
Color range : Limited
Color primaries : BT.709
Transfer characteristics : BT.709
Matrix coefficients : BT.709

Audio
ID : 2
Format : AC-3
Format/Info : Audio Coding 3
Commercial name : Dolby Digital
Codec ID : A_AC3
Duration : 2 h 8 min
Bit rate mode : Constant
Bit rate : 640 kb/s
Channel(s) : 6 channels
Channel layout : L R C LFE Ls Rs
Sampling rate : 48.0 kHz
Frame rate : 31.250 FPS (1536 SPF)
Bit depth : 16 bits
Compression mode : Lossy
Stream size : 590 MiB (7%)
Language : Spanish
Service kind : Complete Main
Default : Yes
Forced : No

Text #1
ID : 3
Format : UTF-8
Codec ID : S_TEXT/UTF8
Codec ID/Info : UTF-8 Plain Text
Duration : 2 h 7 min
Bit rate : 41 b/s
Count of elements : 1398
Stream size : 39.0 KiB (0%)
Language : English
Default : Yes
Forced : No

Text #2
ID : 4
Format : PGS
Muxing mode : zlib
Codec ID : S_HDMV/PGS
Codec ID/Info : Picture based subtitle format used on BDs/HD-DVDs
Duration : 2 h 5 min
Bit rate : 32.4 kb/s
Count of elements : 3512
Stream size : 29.2 MiB (0%)
Language : Spanish
Default : No
Forced : No

Menu
00:00:00.000 : :Chapter 1
00:08:02.565 : :Chapter 2
00:16:47.340 : :Chapter 3
00:24:41.397 : :Chapter 4
00:32:52.888 : :Chapter 5
00:38:51.704 : :Chapter 6
00:48:31.242 : :Chapter 7
00:56:32.014 : :Chapter 8
01:03:06.324 : :Chapter 9
01:10:32.061 : :Chapter 10
01:17:45.744 : :Chapter 11
01:26:27.683 : :Chapter 12
01:35:39.692 : :Chapter 13
01:43:52.643 : :Chapter 14
01:52:36.541 : :Chapter 15
02:02:20.458 : :Chapter 16





1 个附件 售价 大小 下载 时间

Mirage.2018.SPANISH.1080p.BluRay.x264-HANDJOB.torrent 0 金币 42.50K 2734 次 1月前

#1楼
发帖时间:2020-02-14 16:58:30   |   回复数:3
911degrees
隐世仙人♂
非常感谢,谢谢分享
1月前 #2楼
jokingcheung
一代宗师
谢谢分享
1月前 #3楼
wangzhuol
武林高手
谢谢楼主分享
1月前 #4楼
游客组