coor
武林盟主

[2013] [欧美] [剧情] [WEB-1080P] 爱她的枪/神勇不敌女枪手 Loves.Her.Gun.2013.1080p.WEB-DL.DD5.1.H264-FGT 3.06GB

-->

帖子完整标题:爱她的枪/神勇不敌女枪手 Loves.Her.Gun.2013.1080p.WEB-DL.DD5.1.H264-FGT 3.06GB




◎译  名 爱她的枪 / 神勇不敌女枪手
◎片  名 Loves Her Gun
◎年  代 2013
◎产  地 美国
◎类  别 剧情
◎语  言 英语
◎上映日期 2014-01-10(美国)
◎IMDb评分 5.0/10 from 255 users
◎IMDb链接 https://www.imdb.com/title/tt2091343
◎豆瓣评分 4.5/10 from 101 users
◎豆瓣链接 https://movie.douban.com/subject/21334544/
◎片  长 99分钟(美国)
◎导  演 Geoff Marslett
◎编  剧 Geoff Marslett / Lauren Modery
◎主  演 Trieste Kelly Dunn
      Francisco Barreiro
      Ashley Spillers
      希瑟·卡夫卡 Heather Kafka
      Josephine Decker


◎标  签 美国 | 剧情 | 2013 | 美国电影 | 文艺 | 动作 | 珍爱生命远离烂片 | 烂片

◎简  介

  爱她的枪是关于一个年轻的女人谁出逃暴力在纽约的悠闲环境在得克萨斯州中部的一个浪漫的悲剧。有一次,她落户到奥斯汀,她陷入局部枪支文化和她的一些同样的忧虑回来困扰着她。
  (有一天绿豆自杀从5楼跳下来,流了很多血,变成了红豆;一直流脓,又变成了黄豆;伤口结了疤,最后成了黑豆)
Video
ID : 1
Format : AVC
Format/Info : Advanced Video Codec
Format profile : [email protected]
Format settings : CABAC / 5 Ref Frames
Format settings, CABAC : Yes
Format settings, Reference frames : 5 frames
Codec ID : V_MPEG4/ISO/AVC
Duration : 1 h 39 min
Bit rate : 3 931 kb/s
Width : 1 920 pixels
Height : 816 pixels
Display aspect ratio : 2.35:1
Frame rate mode : Constant
Frame rate : 23.976 FPS
Color space : YUV
Chroma subsampling : 4:2:0
Bit depth : 8 bits
Scan type : Progressive
Bits/(Pixel*Frame) : 0.105
Stream size : 2.73 GiB (89%)
Title : Loves.Her.Gun.2013.1080p.WEB-DL.DD5.1.H264-FGT
Language : English
Default : Yes
Forced : No
Color range : Limited
Color primaries : BT.709
Transfer characteristics : BT.709
Matrix coefficients : BT.709

Audio
ID : 2
Format : AC-3
Format/Info : Audio Coding 3
Commercial name : Dolby Digital
Codec ID : A_AC3
Duration : 1 h 39 min
Bit rate mode : Constant
Bit rate : 384 kb/s
Channel(s) : 6 channels
Channel layout : L R C LFE Ls Rs
Sampling rate : 48.0 kHz
Frame rate : 31.250 FPS (1536 SPF)
Bit depth : 16 bits
Compression mode : Lossy
Stream size : 273 MiB (9%)
Title : Loves.Her.Gun.2013.1080p.WEB-DL.DD5.1.H264-FGT
Language : English
Service kind : Complete Main
Default : Yes
Forced : No

Text
ID : 3
Format : UTF-8
Codec ID : S_TEXT/UTF8
Codec ID/Info : UTF-8 Plain Text
Language : English
Default : No
Forced : No

Menu
00:00:00.000 : en:Chapter 1
00:10:00.000 : en:Chapter 2
00:20:00.000 : en:Chapter 3
00:30:00.000 : en:Chapter 4
00:40:00.000 : en:Chapter 5
00:50:00.000 : en:Chapter 6
01:00:00.000 : en:Chapter 7
01:10:00.000 : en:Chapter 8
01:20:00.000 : en:Chapter 9





1 个附件 售价 大小 下载 时间

Loves.Her.Gun.2013.1080p.WEB-DL.DD5.1.H264-FGT.torrent 0 金币 61.73K 189 次 5天前

#1楼
发帖时间:2020-01-15 05:43:51   |   回复数:2
tanchoohoon
武林盟主
感谢楼主的无私分享
4天前 #2楼
911degrees
隐世仙人♂
非常感谢,谢谢分享
4天前 #3楼
游客组