coor
武林盟主

[2017] [欧美] [剧情] [WEB-1080P] 不凡的恩惠/不一样的格蕾丝 An.Uncommon.Grace.2017.1080p.AMZN.WEBRip.DDP2.0.x264-ABM 5.79GB

-->

帖子完整标题:不凡的恩惠/不一样的格蕾丝 An.Uncommon.Grace.2017.1080p.AMZN.WEBRip.DDP2.0.x264-ABM 5.79GB




◎译  名 不凡的恩惠 / 不一样的格蕾丝
◎片  名 An Uncommon Grace
◎年  代 2017
◎产  地 美国
◎类  别 剧情
◎语  言 英语
◎上映日期 2017-02-12(美国)
◎IMDb评分 6.4/10 from 739 users
◎IMDb链接 https://www.imdb.com/title/tt6173488
◎豆瓣评分 0/10 from 0 users
◎豆瓣链接 https://movie.douban.com/subject/30237853/
◎片  长 90分钟
◎导  演 David Mackay
◎主  演 杰斯·麦卡兰
      肖恩·法瑞斯


◎标  签 美国 | 异族 | 电影 | 美国电影 | 爱情 | 唯美 | 剧情 | 轻松

◎简  介

  服役期满,陆军护士格蕾丝?康纳回到了阿米什,跟祖母和妹妹同住。久在军营,格蕾丝有些难以适应家中的生活。但祖母和妹妹对她的归来深感喜悦,并且希望她不要再回军营,而是留下来跟她们一起生活。正在格蕾丝犹豫之际,邻居家发生了神秘的命案,利瓦伊前来求助格蕾丝救自己将死的母亲。格蕾丝成功挽救了利瓦伊母亲的生命,成了利瓦伊一家的救命恩人。独立、坚韧、强大的格蕾丝与利瓦伊认识的其他女性不同,他已经深深陷在格蕾丝的魅力里。但作为极端保守主义的施瓦人,他们不能跟其他阿米什人通婚。面对这段难以抗拒的情感,利瓦伊开始了内心的挣扎。同时,经过不断的调查,命案的真相也即将浮出水面……
Video
ID : 1
Format : AVC
Format/Info : Advanced Video Codec
Format profile : [email protected]
Format settings : CABAC / 4 Ref Frames
Format settings, CABAC : Yes
Format settings, Reference frames : 4 frames
Codec ID : V_MPEG4/ISO/AVC
Duration : 1 h 24 min
Bit rate mode : Variable
Bit rate : 9 630 kb/s
Maximum bit rate : 15.0 Mb/s
Width : 1 920 pixels
Height : 1 080 pixels
Display aspect ratio : 16:9
Frame rate mode : Constant
Frame rate : 23.976 (24000/1001) FPS
Color space : YUV
Chroma subsampling : 4:2:0
Bit depth : 8 bits
Scan type : Progressive
Bits/(Pixel*Frame) : 0.194
Stream size : 5.66 GiB (98%)
Default : Yes
Forced : No
Color range : Limited
Color primaries : BT.709
Transfer characteristics : BT.709
Matrix coefficients : BT.709

Audio
ID : 2
Format : E-AC-3
Format/Info : Enhanced AC-3
Commercial name : Dolby Digital Plus
Codec ID : A_EAC3
Duration : 1 h 24 min
Bit rate mode : Constant
Bit rate : 224 kb/s
Channel(s) : 2 channels
Channel layout : L R
Sampling rate : 48.0 kHz
Frame rate : 31.250 FPS (1536 SPF)
Compression mode : Lossy
Stream size : 135 MiB (2%)
Language : English
Service kind : Complete Main
Default : Yes
Forced : No

Text
ID : 3
Format : UTF-8
Codec ID : S_TEXT/UTF8
Codec ID/Info : UTF-8 Plain Text
Duration : 1 h 22 min
Bit rate : 64 b/s
Count of elements : 1272
Stream size : 38.9 KiB (0%)
Language : English
Default : No
Forced : No





1 个附件 售价 大小 下载 时间

An.Uncommon.Grace.2017.1080p.AMZN.WEBRip.DDP2.0.x264-ABM.torrent 0 金币 58.42K 161 次 5天前

#1楼
发帖时间:2020-01-15 04:55:48   |   回复数:1
911degrees
隐世仙人♂
非常感谢,谢谢分享
4天前 #2楼
游客组