coor
武林盟主

[更 早] [欧美] [惊悚] [BD-1080P] 惊杀 Fright.1971.1080p.BluRay.x264-SPOOKS 6.57GB

-->

帖子完整标题:惊杀 Fright.1971.1080p.BluRay.x264-SPOOKS 6.57GB




◎译  名 惊杀 / Night Legs
◎片  名 Fright
◎年  代 1971
◎产  地 英国
◎类  别 惊悚 / 恐怖 / 犯罪
◎语  言 英语
◎上映日期 1972-05-30
◎IMDb评分 5.9/10 from 1075 users
◎IMDb链接 https://www.imdb.com/title/tt0067119
◎豆瓣评分 0/10 from 0 users
◎豆瓣链接 https://movie.douban.com/subject/3182964/
◎片  长 87 分钟
◎导  演 Peter Collinson
◎编  剧 Tudor Gates
◎主  演 Honor Blackman
      Susan George
      Ian Bannen
      John Gregson
      George Cole
      Dennis Waterman


◎标  签 惊悚 | 恐怖 | 英国 | 英国电影 | 犯罪 | 悬疑 | 垃圾 | 剧情

◎简  介

  暂无相关剧情介绍
Video
ID : 1
Format : AVC
Format/Info : Advanced Video Codec
Format profile : [email protected]
Format settings : CABAC / 4 Ref Frames
Format settings, CABAC : Yes
Format settings, Reference frames : 4 frames
Codec ID : V_MPEG4/ISO/AVC
Duration : 1 h 27 min
Bit rate : 10.1 Mb/s
Width : 1 792 pixels
Height : 1 080 pixels
Display aspect ratio : 5:3
Frame rate mode : Constant
Frame rate : 24.000 FPS
Color space : YUV
Chroma subsampling : 4:2:0
Bit depth : 8 bits
Scan type : Progressive
Bits/(Pixel*Frame) : 0.218
Stream size : 6.19 GiB (94%)
Writing library : x264 core 158 r2988 7817004
Encoding settings : cabac=1 / ref=4 / deblock=1:-3:-3 / analyse=0x3:0x133 / me=umh / subme=9 / psy=1 / psy_rd=1.00:0.00 / mixed_ref=1 / me_range=24 / chroma_me=1 / trellis=1 / 8x8dct=1 / cqm=0 / deadzone=21,11 / fast_pskip=0 / chroma_qp_offset=-2 / threads=24 / lookahead_threads=4 / sliced_threads=0 / nr=0 / decimate=1 / interlaced=0 / bluray_compat=0 / constrained_intra=0 / bframes=8 / b_pyramid=2 / b_adapt=2 / b_bias=0 / direct=3 / weightb=1 / open_gop=0 / weightp=2 / keyint=250 / keyint_min=24 / scenecut=40 / intra_refresh=0 / rc_lookahead=60 / rc=2pass / mbtree=1 / bitrate=10127 / ratetol=1.0 / qcomp=0.60 / qpmin=0 / qpmax=69 / qpstep=4 / cplxblur=20.0 / qblur=0.5 / vbv_maxrate=62500 / vbv_bufsize=78125 / nal_hrd=none / filler=0 / ip_ratio=1.40 / aq=1:1.00
Default : Yes
Forced : No

Audio
ID : 2
Format : FLAC
Format/Info : Free Lossless Audio Codec
Codec ID : A_FLAC
Duration : 1 h 27 min
Bit rate mode : Variable
Bit rate : 595 kb/s
Channel(s) : 2 channels
Channel layout : L R
Sampling rate : 48.0 kHz
Frame rate : 10.417 FPS (4608 SPF)
Bit depth : 24 bits
Compression mode : Lossless
Stream size : 373 MiB (6%)
Writing library : Lavf58.29.100
Language : English
Default : Yes
Forced : No

Menu
00:00:00.000 : en:Chapter 01
00:06:12.250 : en:Chapter 02
00:16:10.750 : en:Chapter 03
00:20:58.417 : en:Chapter 04
00:28:43.125 : en:Chapter 05
00:43:09.042 : en:Chapter 06
00:52:49.333 : en:Chapter 07
01:01:43.750 : en:Chapter 08
01:08:38.917 : en:Chapter 09
01:18:34.208 : en:Chapter 10
01:21:56.917 : en:Chapter 11
01:26:27.000 : en:Chapter 12





1 个附件 售价 大小 下载 时间

Fright.1971.1080p.BluRay.x264-SPOOKS.torrent 0 金币 33.58K 224 次 6天前

#1楼
发帖时间:2020-01-14 18:53:30   |   回复数:1
911degrees
隐世仙人♂
非常感谢,谢谢分享
5天前 #2楼
游客组