coor
武林盟主

[2019] [欧美] [喜剧] [WEB-1080P] 给我自由/任我驰骋任我飞 Give.Me.Liberty.2019.1080p.WEB-DL.DD5.1.H264-FGT 4.34GB

-->

帖子完整标题:给我自由/任我驰骋任我飞 Give.Me.Liberty.2019.1080p.WEB-DL.DD5.1.H264-FGT 4.34GB




◎译  名 给我自由 / 任我驰骋任我飞
◎片  名 Give Me Liberty
◎年  代 2019
◎产  地 美国
◎类  别 喜剧
◎语  言 英语
◎上映日期 2019-01-24(圣丹斯电影节) / 2019-08-23(美国)
◎IMDb评分 7.0/10 from 654 users
◎IMDb链接 https://www.imdb.com/title/tt4169146
◎豆瓣评分 0/10 from 0 users
◎豆瓣链接 https://movie.douban.com/subject/30391735/
◎片  长 120分钟
◎导  演 基里尔·米哈诺夫斯基 Kirill Mikhanovsky
◎编  剧 基里尔·米哈诺夫斯基 Kirill Mikhanovsky / Alice Austen
◎主  演 达里娅·叶卡马索娃 Darya Ekamasova
      Lauren 'Lolo' Spencer
      Chris Galust
      Maxim Stoyanov
      Zoya Makhlina
      Dorothy Reynolds
      Sheryl Sims-Daniels
      Steve Wolski
      Michelle Caspar
      Ben Derfel
      Josette Daniels
      John Day
      Atavia Gold Star
      Jehonathan Guzman
      Shawn Jolly


◎标  签 美国 | 喜剧 | 2019 | 戛纳电影节72th | 戛纳电影节 | 【导演双周·QuinzaineDesRéalisateurs】 | P-CannesD入围导演双周 | 美国电影

◎简  介

  Vic是一位倒霉的年轻俄裔美国人,在密尔瓦基与祖母同住的他,工作是驾驶残疾人士接驳车。某日街头爆发抗争,已经迟到的Vic不情愿地答应先载他的祖父和一群俄裔老伯赶赴一场葬礼,但他们竟不乐意让Vic顺路经过非裔社区,接载患有肌肉萎缩症的黑人女孩Tracy。面临丢掉工作的危机,复杂的状况让Vic的一天雪上加霜。

◎获奖情况

  第72届戛纳电影节(2019)
  导演双周单元(提名) 基里尔·米哈诺夫斯基

  第35届圣丹斯电影节(2019)
  观众奖 未来创新奖(提名) 基里尔·米哈诺夫斯基

  第91届美国国家评论协会奖(2019)
  十佳独立电影

  第35届美国独立精神奖(2020)
  最佳男主角(提名) 克里斯·加卢斯特
  最佳女配角(提名) Lauren 'Lolo' Spencer
  最佳剪辑(提名)
  约翰·卡萨维茨奖(提名)

  第29届哥谭独立电影奖(2019)
  年度突破演员(提名) 克里斯·加卢斯特
Video
ID : 1
Format : AVC
Format/Info : Advanced Video Codec
Format profile : [email protected]
Format settings : CABAC / 4 Ref Frames
Format settings, CABAC : Yes
Format settings, Reference frames : 4 frames
Codec ID : V_MPEG4/ISO/AVC
Duration : 1 h 51 min
Bit rate : 5 209 kb/s
Width : 1 920 pixels
Height : 1 032 pixels
Display aspect ratio : 1.85:1
Frame rate mode : Constant
Frame rate : 23.976 (23976/1000) FPS
Color space : YUV
Chroma subsampling : 4:2:0
Bit depth : 8 bits
Scan type : Progressive
Bits/(Pixel*Frame) : 0.110
Stream size : 4.04 GiB (93%)
Title : Give.Me.Liberty.2019.1080p.WEB-DL.DD5.1.H264-FGT
Language : English
Default : Yes
Forced : No
Color range : Limited
Color primaries : BT.709
Transfer characteristics : BT.709
Matrix coefficients : BT.709

Audio
ID : 2
Format : AC-3
Format/Info : Audio Coding 3
Commercial name : Dolby Digital
Codec ID : A_AC3
Duration : 1 h 51 min
Bit rate mode : Constant
Bit rate : 384 kb/s
Channel(s) : 6 channels
Channel layout : L R C LFE Ls Rs
Sampling rate : 48.0 kHz
Frame rate : 31.250 FPS (1536 SPF)
Bit depth : 16 bits
Compression mode : Lossy
Stream size : 305 MiB (7%)
Title : Give.Me.Liberty.2019.1080p.WEB-DL.DD5.1.H264-FGT
Language : English
Service kind : Complete Main
Default : Yes
Forced : No

Text
ID : 3
Format : UTF-8
Codec ID : S_TEXT/UTF8
Codec ID/Info : UTF-8 Plain Text
Duration : 1 h 50 min
Bit rate : 100 b/s
Count of elements : 1985
Stream size : 80.6 KiB (0%)
Language : English
Default : Yes
Forced : No

Menu
00:00:00.000 : en:1
00:05:49.000 : en:2
00:16:25.000 : en:3
00:24:09.000 : en:4
00:30:14.000 : en:5
00:36:22.000 : en:6
00:40:25.000 : en:7
00:48:23.000 : en:8
00:57:51.000 : en:9
01:04:36.000 : en:10
01:13:13.000 : en:11
01:18:44.000 : en:12
01:25:37.000 : en:13
01:33:14.000 : en:14
01:38:47.000 : en:15
01:47:03.000 : en:16





1 个附件 售价 大小 下载 时间

Give.Me.Liberty.2019.1080p.WEB-DL.DD5.1.H264-FGT.torrent 0 金币 43.95K 1211 次 6天前

#1楼
发帖时间:2020-01-14 16:30:35   |   回复数:1
911degrees
隐世仙人♂
非常感谢,谢谢分享
5天前 #2楼
游客组