coor
一代宗师

[2015] [欧美] [剧情] [WEB-1080P] 病毒航班 The.Carrier.2015.1080p.AMZN.WEBRip.DDP5.1.x264-SiGMA 6.60GB

-->

帖子完整标题:病毒航班 The.Carrier.2015.1080p.AMZN.WEBRip.DDP5.1.x264-SiGMA 6.60GB




◎译  名 病毒航班
◎片  名 The Carrier
◎年  代 2015
◎产  地 英国
◎类  别 剧情 / 动作 / 科幻
◎语  言 英语
◎上映日期 2016-01-26(英国)
◎IMDb评分 3.8/10 from 758 users
◎IMDb链接 https://www.imdb.com/title/tt3163224
◎豆瓣评分 3.9/10 from 117 users
◎豆瓣链接 https://movie.douban.com/subject/26719822/
◎片  长 90分钟
◎导  演 Anthony Woodley
◎编  剧 Luke Healy / Helen Kingston
◎主  演 Rebecca Johnson
      杰克·戈登 Jack Gordon
      Joe Dixon
      埃德蒙德·金斯利 Edmund Kingsley
      Lucy-Jane Quinlan
      Josie Taylor
      Karen Bryson
      James Payton
      Isaura Barbé-Brown
      Zora Bishop
      Luke Healy
      Nikolaos Brahimllari
      Helen Belbin
      Billy Clarke
      Andrew French


◎标  签 英国 | 科幻 | 破烂电影 | 英国电影 | 烂片 | 2015 | 电影 | 犯罪

◎简  介

  在不远的未来,一场对所有抗生素都有抵抗力的瘟疫席卷着整个世界,并且杀死了世界上大多数的人。唯一安全的地方是在一架飞机中。当这架飞机载着一组乘客飞临北欧上空想要在空中尽量停留的时候,随着燃油逐渐降低,他们中的几人被传染上了致命的病毒。对于他们来说,着陆面对地上恐怖的景象,这只是时间问题。
Video
ID : 1
Format : AVC
Format/Info : Advanced Video Codec
Format profile : [email protected]
Format settings : CABAC / 4 Ref Frames
Format settings, CABAC : Yes
Format settings, Reference frames : 4 frames
Codec ID : V_MPEG4/ISO/AVC
Duration : 1 h 30 min
Bit rate mode : Variable
Bit rate : 9 799 kb/s
Maximum bit rate : 15.0 Mb/s
Width : 1 920 pixels
Height : 800 pixels
Display aspect ratio : 2.40:1
Frame rate mode : Constant
Frame rate : 23.976 (24000/1001) FPS
Color space : YUV
Chroma subsampling : 4:2:0
Bit depth : 8 bits
Scan type : Progressive
Bits/(Pixel*Frame) : 0.266
Stream size : 6.20 GiB (94%)
Default : Yes
Forced : No
Color range : Limited
Color primaries : BT.709
Transfer characteristics : BT.709
Matrix coefficients : BT.709

Audio
ID : 2
Format : E-AC-3
Format/Info : Enhanced AC-3
Commercial name : Dolby Digital Plus
Codec ID : A_EAC3
Duration : 1 h 30 min
Bit rate mode : Constant
Bit rate : 640 kb/s
Channel(s) : 6 channels
Channel layout : L R C LFE Ls Rs
Sampling rate : 48.0 kHz
Frame rate : 31.250 FPS (1536 SPF)
Compression mode : Lossy
Stream size : 414 MiB (6%)
Language : English
Service kind : Complete Main
Default : Yes
Forced : No

Text
ID : 3
Format : UTF-8
Codec ID : S_TEXT/UTF8
Codec ID/Info : UTF-8 Plain Text
Duration : 1 h 26 min
Bit rate : 34 b/s
Count of elements : 837
Stream size : 22.0 KiB (0%)
Language : English
Default : No
Forced : No





1 个附件 售价 大小 下载 时间

The.Carrier.2015.1080p.AMZN.WEBRip.DDP5.1.x264-SiGMA.torrent 0 金币 66.56K 476 次 8月前

#1楼
发帖时间:2019-12-04 08:26:23   |   回复数:2
911degrees
隐世仙人♂
非常感谢,谢谢分享
8月前 #2楼
tanchoohoon
武林盟主
感谢楼主的无私分享
8月前 #3楼
游客组