conanlcg
超级版主

[2019] [欧美] [惊悚] [WEB-720P] 活着出去 Stay.Out.Stay.Alive.2019.720p.AMZN.WEBRip.DDP5.1.x264-NTG 2.05GB

-->

帖子完整标题:活着出去 Stay.Out.Stay.Alive.2019.720p.AMZN.WEBRip.DDP5.1.x264-NTG 2.05GB




◎译  名 活着出去
◎片  名 Stay Out Stay Alive
◎年  代 2019
◎产  地 美国
◎类  别 惊悚 / 恐怖
◎语  言 英语
◎上映日期 2019-06-05(Portland Horror Film Festival) / 2019-11-26(美国)
◎IMDb评分 7.9/10 from 33 users
◎IMDb链接 https://www.imdb.com/title/tt5956016
◎豆瓣评分 0/10 from 0 users
◎豆瓣链接 https://movie.douban.com/subject/34859218/
◎片  长 85分钟
◎导  演 Dean Yurke
◎编  剧 Dean Yurke
◎主  演 芭芭拉·克兰普顿 Barbara Crampton
      金娜琼 Christina July Kim
      Sage Mears


◎简  介

  Shadowed by a haunting presence in the redwood forest, five young hikers discover an abandoned goldmine dating back to the Gold Rush and descend into madness and greed as the pursuit of easy riches consumes them.
Video
ID : 1
Format : AVC
Format/Info : Advanced Video Codec
Format profile : [email protected]
Format settings : CABAC / 4 Ref Frames
Format settings, CABAC : Yes
Format settings, Reference frames : 4 frames
Codec ID : V_MPEG4/ISO/AVC
Duration : 1 h 23 min
Bit rate mode : Constant
Bit rate : 2 880 kb/s
Nominal bit rate : 6 000 kb/s
Width : 1 280 pixels
Height : 720 pixels
Display aspect ratio : 16:9
Frame rate mode : Constant
Frame rate : 23.976 (24000/1001) FPS
Color space : YUV
Chroma subsampling : 4:2:0
Bit depth : 8 bits
Scan type : Progressive
Bits/(Pixel*Frame) : 0.130
Stream size : 1.68 GiB (82%)
Default : Yes
Forced : No
Color range : Limited
Color primaries : BT.709
Transfer characteristics : BT.709
Matrix coefficients : BT.709

Audio
ID : 2
Format : E-AC-3
Format/Info : Enhanced AC-3
Commercial name : Dolby Digital Plus
Codec ID : A_EAC3
Duration : 1 h 23 min
Bit rate mode : Constant
Bit rate : 640 kb/s
Channel(s) : 6 channels
Channel layout : L R C LFE Ls Rs
Sampling rate : 48.0 kHz
Frame rate : 31.250 FPS (1536 SPF)
Compression mode : Lossy
Stream size : 382 MiB (18%)
Language : English
Service kind : Complete Main
Default : Yes
Forced : No

Text #1
ID : 3
Format : UTF-8
Codec ID : S_TEXT/UTF8
Codec ID/Info : UTF-8 Plain Text
Duration : 1 h 17 min
Bit rate : 62 b/s
Count of elements : 1215
Stream size : 35.3 KiB (0%)
Language : English
Default : No
Forced : No

Text #2
ID : 4
Format : UTF-8
Codec ID : S_TEXT/UTF8
Codec ID/Info : UTF-8 Plain Text
Duration : 1 h 18 min
Bit rate : 67 b/s
Count of elements : 1363
Stream size : 38.7 KiB (0%)
Title : SDH
Language : English
Default : No
Forced : No





1 个附件 售价 大小 下载 时间

Stay.Out.Stay.Alive.2019.720p.AMZN.WEBRip.DDP5.1.x264-NTG.torrent 0 金币 21.06K 651 次 8月前

#1楼
发帖时间:2019-11-26 19:59:04   |   回复数:1
911degrees
隐世仙人♂
非常感谢,谢谢分享
8月前 #2楼
游客组