conanlcg
超级版主

[2015] [欧美] [惊悚] [WEB-1080P] 循迹线索/循迹线索 Follow.2015.1080p.AMZN.WEBRip.DDP5.1.x264-NTG 3.53GB

-->

帖子完整标题:循迹线索/循迹线索 Follow.2015.1080p.AMZN.WEBRip.DDP5.1.x264-NTG 3.53GB




◎译  名 循迹线索 / 循迹线索(台)
◎片  名 Follow
◎年  代 2015
◎产  地 美国
◎类  别 惊悚
◎语  言 英语
◎上映日期 2015-09-26(美国)
◎IMDb评分 4.8/10 from 586 users
◎IMDb链接 https://www.imdb.com/title/tt4396584
◎豆瓣评分 3.8/10 from 75 users
◎豆瓣链接 https://movie.douban.com/subject/26392576/
◎片  长 74分钟
◎导  演 Owen Egerton
◎编  剧 Owen Egerton
◎主  演 海利·路·理查森 Haley Lu Richardson
      诺阿·西甘 Noah Segan
      唐·莫斯特 Don Most


◎标  签 美国 | 犯罪 | 惊悚 | 2015 | 恐怖 | 美国电影 | 北美英语片 | 烂片

◎简  介

  Quinn, A Painter & Bartender wakes up one morning with a gun in his hand & his girlfriend dead on the floor... He has 2 different choices he can make, each with their own set of consequences... Either call 911 and clean this mess up or don't call anybody and clean it up himself... Only problem is in his state of mind he can't tell which one is right & which is wrong!
Video
ID : 1
Format : AVC
Format/Info : Advanced Video Codec
Format profile : [email protected]
Format settings : CABAC / 4 Ref Frames
Format settings, CABAC : Yes
Format settings, Reference frames : 4 frames
Codec ID : V_MPEG4/ISO/AVC
Duration : 1 h 14 min
Bit rate mode : Variable
Bit rate : 6 180 kb/s
Maximum bit rate : 15.0 Mb/s
Width : 1 920 pixels
Height : 1 040 pixels
Display aspect ratio : 1.85:1
Frame rate mode : Constant
Frame rate : 23.976 (24000/1001) FPS
Color space : YUV
Chroma subsampling : 4:2:0
Bit depth : 8 bits
Scan type : Progressive
Bits/(Pixel*Frame) : 0.129
Stream size : 3.19 GiB (91%)
Default : Yes
Forced : No
Color range : Limited
Color primaries : BT.709
Transfer characteristics : BT.709
Matrix coefficients : BT.709

Audio
ID : 2
Format : E-AC-3
Format/Info : Enhanced AC-3
Commercial name : Dolby Digital Plus
Codec ID : A_EAC3
Duration : 1 h 14 min
Bit rate mode : Constant
Bit rate : 640 kb/s
Channel(s) : 6 channels
Channel layout : L R C LFE Ls Rs
Sampling rate : 48.0 kHz
Frame rate : 31.250 FPS (1536 SPF)
Compression mode : Lossy
Stream size : 339 MiB (9%)
Language : English
Service kind : Complete Main
Default : Yes
Forced : No

Text
ID : 3
Format : UTF-8
Codec ID : S_TEXT/UTF8
Codec ID/Info : UTF-8 Plain Text
Duration : 1 h 9 min
Bit rate : 35 b/s
Count of elements : 781
Stream size : 17.9 KiB (0%)
Title : SDH
Language : English
Default : No
Forced : No





1 个附件 售价 大小 下载 时间

Follow.2015.1080p.AMZN.WEBRip.DDP5.1.x264-NTG.torrent 0 金币 71.06K 308 次 2月前

#1楼
发帖时间:2019-11-23 13:00:00   |   回复数:1
911degrees
隐世仙人♂
非常感谢,谢谢分享
2月前 #2楼
游客组