conanlcg
超级版主

[2008] [其他] [其他] [WEB-1080P] 堡垒/监狱 The.Fortress.2008.SUBBED.1080p.AMZN.WEBRip.DDP2.0.x264-TEPES 7.13GB

-->

帖子完整标题:堡垒/监狱 The.Fortress.2008.SUBBED.1080p.AMZN.WEBRip.DDP2.0.x264-TEPES 7.13GB




◎译  名 堡垒 / 监狱
◎片  名 La forteresse
◎年  代 2008
◎产  地 瑞士
◎类  别 纪录片
◎语  言 法语
◎上映日期 2008-09-15
◎IMDb评分 7.3/10 from 112 users
◎IMDb链接 https://www.imdb.com/title/tt1323518
◎豆瓣评分 0/10 from 0 users
◎豆瓣链接 https://movie.douban.com/subject/4316659/
◎片  长 Argentina: 104 分钟(Buenos Aires Festival Internacional de Cine Independiente)
◎导  演 Fernand Melgar

◎标  签 纪录片 | 瑞士 | 难民 | 紀錄片 | 瑞士纪录片 | Switzerland | 难民营 | 费尔南·梅尔加

◎简  介

  摄影机第一次不受限制地进入了瑞士的难民收容营,来自世界各地因为不同原因离开家园人们,在这里等待自己飘忽不定的未来。
Video
ID : 1
Format : AVC
Format/Info : Advanced Video Codec
Format profile : [email protected]
Format settings : CABAC / 4 Ref Frames
Format settings, CABAC : Yes
Format settings, Reference frames : 4 frames
Format settings, GOP : M=4, N=50
Codec ID : V_MPEG4/ISO/AVC
Duration : 1 h 42 min
Bit rate mode : Constant
Bit rate : 10 000 kb/s
Width : 1 920 pixels
Height : 1 080 pixels
Display aspect ratio : 16:9
Frame rate mode : Constant
Frame rate : 25.000 FPS
Standard : PAL
Color space : YUV
Chroma subsampling : 4:2:0
Bit depth : 8 bits
Scan type : Progressive
Bits/(Pixel*Frame) : 0.193
Stream size : 6.97 GiB (98%)
Language : English
Default : Yes
Forced : No
Color range : Limited
Color primaries : BT.709
Transfer characteristics : BT.709
Matrix coefficients : BT.709

Audio
ID : 2
Format : E-AC-3
Format/Info : Enhanced AC-3
Commercial name : Dolby Digital Plus
Codec ID : A_EAC3
Duration : 1 h 42 min
Bit rate mode : Constant
Bit rate : 224 kb/s
Channel(s) : 2 channels
Channel layout : L R
Sampling rate : 48.0 kHz
Frame rate : 31.250 FPS (1536 SPF)
Compression mode : Lossy
Stream size : 165 MiB (2%)
Language : English
Service kind : Complete Main
Default : Yes
Forced : No





1 个附件 售价 大小 下载 时间

The.Fortress.2008.SUBBED.1080p.AMZN.WEBRip.DDP2.0.x264-TEPES.torrent 0 金币 36.21K 210 次 14天前

#1楼
发帖时间:2019-11-21 20:04:12   |   回复数:3
liyouchai
隐世仙人♂
谢谢楼主分享资源
14天前 #2楼
911degrees
隐世仙人♂
非常感谢,谢谢分享
13天前 #3楼
kola13
一派掌门
感谢分享
13天前 #4楼
游客组