conanlcg
超级版主

[2015] [其他] [喜剧] [WEB-1080P] 有种你爱我 One.Night.Stud.2015.CHINESE.1080p.NF.WEBRip.DDP5.1.x264-PLB 3.92GB

-->

帖子完整标题:有种你爱我 One.Night.Stud.2015.CHINESE.1080p.NF.WEBRip.DDP5.1.x264-PLB 3.92GB




◎译  名 One Night Stud / 一夜种马
◎片  名 有种你爱我
◎年  代 2015
◎产  地 中国大陆
◎类  别 喜剧 / 爱情
◎语  言 汉语普通话
◎上映日期 2015-02-06(中国大陆)
◎IMDb评分 5.2/10 from 85 users
◎IMDb链接 https://www.imdb.com/title/tt4561398
◎豆瓣评分 4.6/10 from 41465 users
◎豆瓣链接 https://movie.douban.com/subject/24743712/
◎片  长 105分钟
◎导  演 李欣蔓 Xinman Li
◎编  剧 李欣蔓 Xinman Li / 张耀之 Yaozhi Zhang
◎主  演 江一燕 Yiyan Jiang
      郑恺 Kai Zheng
      于笑 Xiao Yu
      于嘉萌 Jiameng Yu
      常方源 Fangyuan Chang
      陈作深 Zuoshen Chen
      刘沙 Sha Liu
      师春玲 Chunling Shi
      李长麟 Changlin Li
      谈莎莎 Shasha Tan
      哈斯高娃 Gaowa Hasi
      王膺然 Yingran Wang


◎标  签 爱情 | 喜剧 | 郑恺 | 江一燕 | 2015 | 中国 | 烂片 | 中国电影

◎简  介

  左小欣(江一燕 饰)是一位小有名气的建筑师,快乐充实而又衣食无忧的生活让她无需拿婚姻当“饭碗”,目睹过感情脆弱的她对男人亦失去了最基本的信任。然而,随着时间的推移,左小欣想要一个孩子了,如何跳过“男人”和“婚姻”得到“孩子”?这成为了左小欣目前正在研究的最大难题。
  一次偶然中,左小欣结识了名叫查义(郑凯 饰)节目主持人,一来二去之中,左小欣的腹中怀上了查义的骨肉,然而对于这一切以及左小欣的“阴谋”,单纯懵懂的查义一无所知。一晃眼一年过去,左小欣将一切的真相告诉了查义,在震惊和愤怒的同时,血浓于水的亲情亦在查义的内心中荡漾开来。
Video
ID : 1
Format : AVC
Format/Info : Advanced Video Codec
Format profile : [email protected]
Format settings : CABAC / 3 Ref Frames
Format settings, CABAC : Yes
Format settings, Reference frames : 3 frames
Codec ID : V_MPEG4/ISO/AVC
Duration : 1 h 46 min
Bit rate mode : Variable
Bit rate : 4 640 kb/s
Maximum bit rate : 6 960 kb/s
Width : 1 920 pixels
Height : 1 080 pixels
Display aspect ratio : 16:9
Frame rate mode : Constant
Frame rate : 24.000 FPS
Color space : YUV
Chroma subsampling : 4:2:0
Bit depth : 8 bits
Scan type : Progressive
Bits/(Pixel*Frame) : 0.093
Stream size : 3.36 GiB (86%)
Writing library : x264 core 148 r2715 7e75228
Encoding settings : cabac=1 / ref=3 / deblock=1:0:0 / analyse=0x1:0x111 / me=umh / subme=10 / psy=1 / psy_rd=1.00:0.00 / mixed_ref=1 / me_range=24 / chroma_me=1 / trellis=2 / 8x8dct=0 / cqm=0 / deadzone=21,11 / fast_pskip=1 / chroma_qp_offset=-2 / threads=8 / lookahead_threads=1 / sliced_threads=0 / nr=0 / decimate=1 / interlaced=0 / bluray_compat=0 / stitchable=1 / constrained_intra=0 / bframes=2 / b_pyramid=0 / b_adapt=2 / b_bias=0 / direct=3 / weightb=1 / open_gop=0 / weightp=2 / keyint=48 / keyint_min=25 / scenecut=0 / intra_refresh=0 / rc_lookahead=48 / rc=2pass / mbtree=1 / bitrate=4640 / ratetol=1.0 / qcomp=0.50 / qpmin=6 / qpmax=51 / qpstep=4 / cplxblur=20.0 / qblur=0.5 / vbv_maxrate=6960 / vbv_bufsize=9280 / nal_hrd=vbr / filler=0 / ip_ratio=1.40 / aq=1:1.00
Default : Yes
Forced : No
Statistics Tags Issue : mkvmerge v37.0.0 (\'Leave It\') 64-bit 2019-10-18 03:13:39 / mkvmerge v37.0.0 (\'Leave It\') 64-bit 2019-10-18 03:13:39 / UTC 2019-10-12 00:33:25
FromStats_BitRate : 4625942
FromStats_Duration : 01:46:27.000000000
FromStats_FrameCount : 153288
FromStats_StreamSize : 3693236792

Audio
ID : 2
Format : E-AC-3
Format/Info : Enhanced AC-3
Commercial name : Dolby Digital Plus
Codec ID : A_EAC3
Duration : 1 h 46 min
Bit rate mode : Constant
Bit rate : 640 kb/s
Channel(s) : 6 channels
Channel layout : L R C LFE Ls Rs
Sampling rate : 48.0 kHz
Frame rate : 31.250 FPS (1536 SPF)
Compression mode : Lossy
Stream size : 487 MiB (12%)
Title : Mandarin
Language : Chinese
Service kind : Complete Main
Default : Yes
Forced : No
Encoded date : UTC 2019-10-12 00:33:25
Statistics Tags Issue : mkvmerge v37.0.0 (\'Leave It\') 64-bit 2019-10-18 03:13:39 / mkvmerge v37.0.0 (\'Leave It\') 64-bit 2019-10-18 03:13:39 / UTC 2019-10-12 00:33:25
FromStats_BitRate : 640000
FromStats_Duration : 01:46:27.104000000
FromStats_FrameCount : 199597
FromStats_StreamSize : 510968320

Text #1
ID : 3
Format : UTF-8
Codec ID : S_TEXT/UTF8
Codec ID/Info : UTF-8 Plain Text
Title : English
Language : English
Default : Yes
Forced : Yes
Statistics Tags Issue : mkvmerge v37.0.0 (\'Leave It\') 64-bit 2019-10-18 03:13:39 / mkvmerge v37.0.0 (\'Leave It\') 64-bit 2019-10-18 03:13:39 / UTC 2019-10-12 00:33:25
FromStats_BitRate : 62
FromStats_Duration : 01:43:24.250000000
FromStats_FrameCount : 1324
FromStats_StreamSize : 48826

Text #2
ID : 4
Format : UTF-8
Codec ID : S_TEXT/UTF8
Codec ID/Info : UTF-8 Plain Text
Title : Vietnamese
Language : Vietnamese
Default : No
Forced : No
Statistics Tags Issue : mkvmerge v37.0.0 (\'Leave It\') 64-bit 2019-10-18 03:13:39 / mkvmerge v37.0.0 (\'Leave It\') 64-bit 2019-10-18 03:13:39 / UTC 2019-10-12 00:33:25
FromStats_BitRate : 74
FromStats_Duration : 01:44:03.458000000
FromStats_FrameCount : 1345
FromStats_StreamSize : 58249

Text #3
ID : 5
Format : UTF-8
Codec ID : S_TEXT/UTF8
Codec ID/Info : UTF-8 Plain Text
Title : Traditional Chinese
Default : No
Forced : No
Statistics Tags Issue : mkvmerge v37.0.0 (\'Leave It\') 64-bit 2019-10-18 03:13:39 / mkvmerge v37.0.0 (\'Leave It\') 64-bit 2019-10-18 03:13:39 / UTC 2019-10-12 00:33:25
FromStats_BitRate : 53
FromStats_Duration : 01:44:03.666000000
FromStats_FrameCount : 1296
FromStats_StreamSize : 41403

Text #4
ID : 6
Format : UTF-8
Codec ID : S_TEXT/UTF8
Codec ID/Info : UTF-8 Plain Text
Title : Simplified Chinese
Default : No
Forced : No
Statistics Tags Issue : mkvmerge v37.0.0 (\'Leave It\') 64-bit 2019-10-18 03:13:39 / mkvmerge v37.0.0 (\'Leave It\') 64-bit 2019-10-18 03:13:39 / UTC 2019-10-12 00:33:25
FromStats_BitRate : 51
FromStats_Duration : 01:44:04.042000000
FromStats_FrameCount : 1280
FromStats_StreamSize : 39916

Text #5
ID : 7
Format : UTF-8
Codec ID : S_TEXT/UTF8
Codec ID/Info : UTF-8 Plain Text
Title : Indonesian
Language : Indonesian
Default : No
Forced : No
Statistics Tags Issue : mkvmerge v37.0.0 (\'Leave It\') 64-bit 2019-10-18 03:13:39 / mkvmerge v37.0.0 (\'Leave It\') 64-bit 2019-10-18 03:13:39 / UTC 2019-10-12 00:33:25
FromStats_BitRate : 58
FromStats_Duration : 01:43:24.250000000
FromStats_FrameCount : 1341
FromStats_StreamSize : 45044

Text #6
ID : 8
Format : UTF-8
Codec ID : S_TEXT/UTF8
Codec ID/Info : UTF-8 Plain Text
Title : Thai
Language : Thai
Default : No
Forced : No
Statistics Tags Issue : mkvmerge v37.0.0 (\'Leave It\') 64-bit 2019-10-18 03:13:39 / mkvmerge v37.0.0 (\'Leave It\') 64-bit 2019-10-18 03:13:39 / UTC 2019-10-12 00:33:25
FromStats_BitRate : 127
FromStats_Duration : 01:44:03.458000000
FromStats_FrameCount : 1346
FromStats_StreamSize : 99753





1 个附件 售价 大小 下载 时间

One.Night.Stud.2015.CHINESE.1080p.NF.WEBRip.DDP5.1.x264-PLB.torrent 0 金币 39.71K 371 次 2月前

#1楼
发帖时间:2019-11-18 20:58:46   |   回复数:1
911degrees
隐世仙人♂
非常感谢,谢谢分享
1月前 #2楼
游客组