conanlcg
超级版主

[2019] [欧美] [科幻] [WEB-720P] 末世指令/末世指令 The.Directive.2019.720p.AMZN.WEBRip.DDP2.0.x264-IKA 4.39GB

-->

帖子完整标题:末世指令/末世指令 The.Directive.2019.720p.AMZN.WEBRip.DDP2.0.x264-IKA 4.39GB




◎译  名 末世指令 / 末世指令(台)
◎片  名 The Directive
◎年  代 2019
◎产  地 美国
◎类  别 科幻 / 冒险
◎语  言 英语
◎上映日期 2019-03-01(美国)
◎IMDb评分 6.7/10 from 967 users
◎IMDb链接 https://www.imdb.com/title/tt5834278
◎豆瓣评分 3.3/10 from 149 users
◎豆瓣链接 https://movie.douban.com/subject/30453174/
◎片  长 113分钟
◎导  演 Alexander Raye Pimentel
◎编  剧 Alexander Raye Pimentel
◎主  演 Blaiden D. Cordle
      Nicholas Winand
      Hannah Pimentel


◎标  签 科幻 | 烂片 | 灾难 | 超烂 | 美国 | 美国电影 | 差评 | 2019

◎简  介

  致命病毒肆虐全球,引发末日危机。疫情爆发一年后,一名幸存的男孩找到台破旧的机器人,两人携手展开了一趟冒险旅途,要寻找神秘的57区。
Video
ID : 1
Format : AVC
Format/Info : Advanced Video Codec
Format profile : [email protected]
Format settings : CABAC / 4 Ref Frames
Format settings, CABAC : Yes
Format settings, Reference frames : 4 frames
Codec ID : V_MPEG4/ISO/AVC
Duration : 1 h 53 min
Bit rate mode : Constant
Bit rate : 5 325 kb/s
Nominal bit rate : 6 000 kb/s
Width : 1 280 pixels
Height : 720 pixels
Display aspect ratio : 16:9
Frame rate mode : Constant
Frame rate : 23.976 (24000/1001) FPS
Color space : YUV
Chroma subsampling : 4:2:0
Bit depth : 8 bits
Scan type : Progressive
Bits/(Pixel*Frame) : 0.241
Stream size : 4.21 GiB (96%)
Default : Yes
Forced : No
Color range : Limited
Color primaries : BT.709
Transfer characteristics : BT.709
Matrix coefficients : BT.709

Audio
ID : 2
Format : E-AC-3
Format/Info : Enhanced AC-3
Commercial name : Dolby Digital Plus
Codec ID : A_EAC3
Duration : 1 h 53 min
Bit rate mode : Constant
Bit rate : 224 kb/s
Channel(s) : 2 channels
Channel layout : L R
Sampling rate : 48.0 kHz
Frame rate : 31.250 FPS (1536 SPF)
Compression mode : Lossy
Stream size : 181 MiB (4%)
Language : English
Service kind : Complete Main
Default : Yes
Forced : No

Text
ID : 3
Format : UTF-8
Codec ID : S_TEXT/UTF8
Codec ID/Info : UTF-8 Plain Text
Duration : 1 h 50 min
Bit rate : 33 b/s
Count of elements : 871
Stream size : 26.8 KiB (0%)
Language : English
Default : No
Forced : No





1 个附件 售价 大小 下载 时间

The.Directive.2019.720p.AMZN.WEBRip.DDP2.0.x264-IKA.torrent 0 金币 44.43K 371 次 18天前

#1楼
发帖时间:2019-11-17 04:15:09   |   回复数:1
911degrees
隐世仙人♂
非常感谢,谢谢分享
18天前 #2楼
游客组