conanlcg
超级版主

[2019] [欧美] [剧情] [WEB-720P] 无线电闪光 Radioflash.2019.720p.AMZN.WEBRip.DDP5.1.x264-NTG 2.78GB

-->

帖子完整标题:无线电闪光 Radioflash.2019.720p.AMZN.WEBRip.DDP5.1.x264-NTG 2.78GB




◎译  名 无线电闪光
◎片  名 Radioflash
◎年  代 2019
◎产  地 美国
◎类  别 剧情 / 惊悚
◎语  言 英语
◎上映日期 2019-11-15(美国)
◎IMDb链接 https://www.imdb.com/title/tt7288408
◎豆瓣评分 0/10 from 0 users
◎豆瓣链接 https://movie.douban.com/subject/34859221/
◎导  演 Ben McPherson
◎编  剧 Ben McPherson
◎主  演 布莱特顿·沙比诺 Brighton Sharbino
      多米尼克·莫纳汉 Dominic Monaghan
      威尔·帕顿 Will Patton


◎简  介

  When a nuclear device causes an electromagnetic pulse that kills power to more than 200 million people, a teenage girl must help lead her family to survival in a dark new world.
Video
ID : 1
Format : AVC
Format/Info : Advanced Video Codec
Format profile : [email protected]
Format settings : CABAC / 4 Ref Frames
Format settings, CABAC : Yes
Format settings, Reference frames : 4 frames
Codec ID : V_MPEG4/ISO/AVC
Duration : 1 h 42 min
Bit rate mode : Constant
Bit rate : 3 238 kb/s
Nominal bit rate : 6 000 kb/s
Width : 1 248 pixels
Height : 520 pixels
Display aspect ratio : 2.40:1
Frame rate mode : Constant
Frame rate : 23.976 (24000/1001) FPS
Color space : YUV
Chroma subsampling : 4:2:0
Bit depth : 8 bits
Scan type : Progressive
Bits/(Pixel*Frame) : 0.208
Stream size : 2.32 GiB (83%)
Default : Yes
Forced : No
Color range : Limited
Color primaries : BT.709
Transfer characteristics : BT.709
Matrix coefficients : BT.709

Audio
ID : 2
Format : E-AC-3
Format/Info : Enhanced AC-3
Commercial name : Dolby Digital Plus
Codec ID : A_EAC3
Duration : 1 h 42 min
Bit rate mode : Constant
Bit rate : 640 kb/s
Channel(s) : 6 channels
Channel layout : L R C LFE Ls Rs
Sampling rate : 48.0 kHz
Frame rate : 31.250 FPS (1536 SPF)
Compression mode : Lossy
Stream size : 469 MiB (16%)
Language : English
Service kind : Complete Main
Default : Yes
Forced : No

Text #1
ID : 3
Format : UTF-8
Codec ID : S_TEXT/UTF8
Codec ID/Info : UTF-8 Plain Text
Duration : 1 h 40 min
Bit rate : 34 b/s
Count of elements : 878
Stream size : 25.2 KiB (0%)
Language : English
Default : No
Forced : No

Text #2
ID : 4
Format : UTF-8
Codec ID : S_TEXT/UTF8
Codec ID/Info : UTF-8 Plain Text
Duration : 1 h 41 min
Bit rate : 38 b/s
Count of elements : 1134
Stream size : 29.1 KiB (0%)
Title : SDH
Language : English
Default : No
Forced : No





1 个附件 售价 大小 下载 时间

Radioflash.2019.720p.AMZN.WEBRip.DDP5.1.x264-NTG.torrent 0 金币 28.31K 210 次 8月前

#1楼
发帖时间:2019-11-16 21:52:56   |   回复数:1
911degrees
隐世仙人♂
非常感谢,谢谢分享
8月前 #2楼
游客组