conanlcg
超级版主

[更 早] [欧美] [惊悚] [BD-1080P] 胆破心惊2 Trilogy.Of.Terror.II.1996.1080p.BluRay.x264.DTS-FGT 8.23GB

-->

帖子完整标题:胆破心惊2 Trilogy.Of.Terror.II.1996.1080p.BluRay.x264.DTS-FGT 8.23GB




◎译  名 胆破心惊2
◎片  名 Trilogy of Terror II (TV)
◎年  代 1996
◎产  地 美国
◎类  别 惊悚 / 恐怖
◎语  言 英语
◎上映日期 1996-10-30
◎IMDb评分 5.7/10 from 1309 users
◎IMDb链接 https://www.imdb.com/title/tt0117966
◎豆瓣评分 7.0/10 from 72 users
◎豆瓣链接 https://movie.douban.com/subject/1296129/
◎片  长 90分钟
◎导  演 丹·柯蒂斯 Dan Curtis
◎编  剧 威廉·F·诺兰 William F. Nolan / 丹·柯蒂斯 Dan Curtis
◎主  演 丽赛特·安东尼 Lysette Anthony
      格兰特·维恩·戴维斯 Geraint Wyn Davies
      马特·克拉克 Matt Clark
      杰佛里·刘易斯 Geoffrey Lewis
      布莱克·赫伦 Blake Heron
      Richard Fitzpatrick
      托马斯·米切尔 Thomas Mitchell
      Gerry Quigley
      Dennis O'Connor
      John McMahon
      Alan Bridle
      Brittaney Bennett
      Norm Spencer
      Bruce McFee
      Joe Gieb


◎标  签 恐怖 | 美国 | 惊悚 | 分段 | B级片 | CULT | 非常想看 | 胆破心惊2

◎简  介

  三个恐怖短篇小说,包括:一个女人试图抢劫坟墓时遇到的故事;一个女人把她的儿子从死里召回的故事(完全照搬死亡之夜 Dead of Night (1977)中的第三个故事);以及一个非洲娃娃复活的故事。
Video
ID : 1
Format : AVC
Format/Info : Advanced Video Codec
Format profile : [email protected]
Format settings : CABAC / 4 Ref Frames
Format settings, CABAC : Yes
Format settings, Reference frames : 4 frames
Codec ID : V_MPEG4/ISO/AVC
Duration : 1 h 30 min
Bit rate : 11.5 Mb/s
Width : 1 440 pixels
Height : 1 080 pixels
Display aspect ratio : 4:3
Frame rate mode : Constant
Frame rate : 23.976 (24000/1001) FPS
Color space : YUV
Chroma subsampling : 4:2:0
Bit depth : 8 bits
Scan type : Progressive
Bits/(Pixel*Frame) : 0.308
Stream size : 7.27 GiB (88%)
Title : Trilogy.Of.Terror.II.1996.1080p.BluRay.x264.DTS-FGT
Writing library : x264 core 148 r2748 97eaef2
Encoding settings : cabac=1 / ref=4 / deblock=1:-2:-2 / analyse=0x3:0x113 / me=umh / subme=9 / psy=1 / psy_rd=1.00:0.15 / mixed_ref=1 / me_range=16 / chroma_me=1 / trellis=2 / 8x8dct=1 / cqm=0 / deadzone=21,11 / fast_pskip=1 / chroma_qp_offset=-3 / threads=24 / lookahead_threads=3 / sliced_threads=0 / nr=0 / decimate=1 / interlaced=0 / bluray_compat=0 / constrained_intra=0 / bframes=3 / b_pyramid=2 / b_adapt=1 / b_bias=0 / direct=3 / weightb=1 / open_gop=0 / weightp=2 / keyint=250 / keyint_min=25 / scenecut=40 / intra_refresh=0 / rc_lookahead=50 / rc=2pass / mbtree=1 / bitrate=11500 / ratetol=1.0 / qcomp=0.60 / qpmin=0 / qpmax=69 / qpstep=4 / cplxblur=20.0 / qblur=0.5 / vbv_maxrate=31250 / vbv_bufsize=31250 / nal_hrd=none / filler=0 / ip_ratio=1.40 / aq=1:1.00
Language : English
Default : Yes
Forced : No

Audio
ID : 2
Format : DTS
Format/Info : Digital Theater Systems
Codec ID : A_DTS
Duration : 1 h 30 min
Bit rate mode : Constant
Bit rate : 1 509 kb/s
Channel(s) : 2 channels
Channel layout : L R
Sampling rate : 48.0 kHz
Frame rate : 93.750 FPS (512 SPF)
Bit depth : 16 bits
Compression mode : Lossy
Stream size : 978 MiB (12%)
Title : Trilogy.Of.Terror.II.1996.1080p.BluRay.x264.DTS-FGT
Language : English
Default : Yes
Forced : No

Text
ID : 3
Format : UTF-8
Codec ID : S_TEXT/UTF8
Codec ID/Info : UTF-8 Plain Text
Duration : 1 h 26 min
Bit rate : 38 b/s
Count of elements : 723
Stream size : 24.5 KiB (0%)
Language : English
Default : Yes
Forced : No

Menu
00:00:00.000 : en:Chapter 1
00:11:40.199 : en:Chapter 2
00:22:38.273 : en:Chapter 3
00:30:43.758 : en:Chapter 4
00:40:27.591 : en:Chapter 5
00:57:36.578 : en:Chapter 6
01:10:44.197 : en:Chapter 7
01:27:43.966 : en:Chapter 8





1 个附件 售价 大小 下载 时间

Trilogy.Of.Terror.II.1996.1080p.BluRay.x264.DTS-FGT.torrent 0 金币 41.69K 357 次 8天前

#1楼
发帖时间:2019-11-09 06:45:40   |   回复数:1
tanchoohoon
武林盟主
感谢楼主的无私分享
7天前 #2楼
游客组