conanlcg
超级版主

[2015] [欧美] [剧情] [WEB-1080P] 天降奇迹 The.UnMiracle.2017.1080p.NF.WEBRip.DD5.1.x264-SiGMA 3.52GB

-->

帖子完整标题:天降奇迹 The.UnMiracle.2017.1080p.NF.WEBRip.DD5.1.x264-SiGMA 3.52GB




◎译  名 天降奇迹
◎片  名 The UnMiracle
◎年  代 2015
◎产  地 美国
◎类  别 剧情
◎语  言 英语
◎上映日期 2017-08-01(美国)
◎IMDb评分 3.4/10 from 179 users
◎IMDb链接 https://www.imdb.com/title/tt3300712
◎豆瓣评分 0/10 from 0 users
◎豆瓣链接 https://movie.douban.com/subject/26628468/
◎片  长 121分钟
◎导  演 Andrew Papke
◎编  剧 Andrew Papke
◎主  演 史蒂芬·鲍德温 Stephen Baldwin
      Amy Lyndon
      凯文·索伯 Kevin Sorbo
      Connor Williams


◎标  签 美国 | 自我的解救 | 改变 | 戒毒 | 命运的探索 | 信仰

◎简  介

  学校裡最受欢迎的女孩凯拉与朋友在派对上吸毒,最后因为滥用药物过量昏迷送医,她的男友丹尼及朋友迪诺因害怕,迟迟不敢坦白毒品的源头,虔诚信仰耶稣的亚林,同时也是他们的朋友,如何带领他们走出黑暗,聆听上帝所要诉说的真理,以及女孩究竟能否再次甦醒,重新展望新人生…
Video
ID : 1
Format : AVC
Format/Info : Advanced Video Codec
Format profile : [email protected]
Format settings : CABAC / 3 Ref Frames
Format settings, CABAC : Yes
Format settings, Reference frames : 3 frames
Codec ID : V_MPEG4/ISO/AVC
Duration : 1 h 36 min
Bit rate mode : Variable
Bit rate : 4 870 kb/s
Maximum bit rate : 7 305 kb/s
Width : 1 920 pixels
Height : 1 080 pixels
Display aspect ratio : 16:9
Frame rate mode : Constant
Frame rate : 23.976 (24000/1001) FPS
Color space : YUV
Chroma subsampling : 4:2:0
Bit depth : 8 bits
Scan type : Progressive
Bits/(Pixel*Frame) : 0.098
Stream size : 3.26 GiB (93%)
Writing library : x264 core 148
Encoding settings : cabac=1 / ref=3 / deblock=1:0:0 / analyse=0x1:0x111 / me=umh / subme=10 / psy=1 / psy_rd=1.00:0.00 / mixed_ref=1 / me_range=24 / chroma_me=1 / trellis=2 / 8x8dct=0 / cqm=0 / deadzone=21,11 / fast_pskip=1 / chroma_qp_offset=-2 / threads=8 / lookahead_threads=1 / sliced_threads=0 / nr=0 / decimate=1 / interlaced=0 / bluray_compat=0 / stitchable=1 / constrained_intra=0 / bframes=2 / b_pyramid=0 / b_adapt=2 / b_bias=0 / direct=3 / weightb=1 / open_gop=0 / weightp=2 / keyint=48 / keyint_min=25 / scenecut=0 / intra_refresh=0 / rc_lookahead=48 / rc=2pass / mbtree=1 / bitrate=4870 / ratetol=1.0 / qcomp=0.50 / qpmin=6 / qpmax=51 / qpstep=4 / cplxblur=20.0 / qblur=0.5 / vbv_maxrate=7305 / vbv_bufsize=9740 / nal_hrd=vbr / filler=0 / ip_ratio=1.40 / aq=1:1.00
Default : Yes
Forced : No

Audio
ID : 2
Format : AC-3
Format/Info : Audio Coding 3
Commercial name : Dolby Digital
Codec ID : A_AC3
Duration : 1 h 36 min
Bit rate mode : Constant
Bit rate : 384 kb/s
Channel(s) : 6 channels
Channel layout : L R C LFE Ls Rs
Sampling rate : 48.0 kHz
Frame rate : 31.250 FPS (1536 SPF)
Bit depth : 16 bits
Compression mode : Lossy
Stream size : 264 MiB (7%)
Language : English
Service kind : Complete Main
Default : Yes
Forced : No

Text
ID : 3
Format : UTF-8
Codec ID : S_TEXT/UTF8
Codec ID/Info : UTF-8 Plain Text
Duration : 1 h 34 min
Bit rate : 65 b/s
Count of elements : 1558
Stream size : 45.7 KiB (0%)
Title : SDH
Language : English
Default : No
Forced : No





1 个附件 售价 大小 下载 时间

The.UnMiracle.2017.1080p.NF.WEBRip.DD5.1.x264-SiGMA.torrent 0 金币 70.93K 112 次 8天前

#1楼
发帖时间:2019-11-09 03:45:37   |   回复数:1
911degrees
隐世仙人♂
非常感谢,谢谢分享
7天前 #2楼
游客组