conanlcg
超级版主

[2019] [其他] [动作] [BD-4K] 阿丽塔:战斗天使/艾莉塔:战斗天使 Alita.Battle.Angel.2019.INTERNAL.HDR.2160p.WEB.H265-DEFLATE 21

-->

帖子完整标题:阿丽塔:战斗天使/艾莉塔:战斗天使 Alita.Battle.Angel.2019.INTERNAL.HDR.2160p.WEB.H265-DEFLATE 21.54GB




◎译  名 阿丽塔:战斗天使 / 艾莉塔:战斗天使(台) / 铳梦 / 铳梦:战斗天使(港)
◎片  名 Alita: Battle Angel
◎年  代 2019
◎产  地 美国 / 加拿大 / 阿根廷
◎类  别 动作 / 科幻 / 冒险
◎语  言 英语 / 西班牙语
◎上映日期 2019-02-05(台湾) / 2019-02-14(美国) / 2019-02-22(中国大陆)
◎IMDb评分 7.5/10 from 102771 users
◎IMDb链接 http://www.imdb.com/title/tt0437086
◎豆瓣评分 7.6/10 from 343930 users
◎豆瓣链接 https://movie.douban.com/subject/1652592/
◎片  长 122分钟
◎导  演 罗伯特·罗德里格兹 Robert Rodriguez
◎编  剧 詹姆斯·卡梅隆 James Cameron / 莱塔·卡罗格里迪斯 Laeta Kalogridis / 木城幸人 Yukito Kishiro
◎主  演 罗莎·萨拉查 Rosa Salazar
      克里斯托弗·沃尔兹 Christoph Waltz
      基恩·约翰逊 Keean Johnson
      艾德·斯克林 Ed Skrein
      马赫沙拉·阿里 Mahershala Ali
      詹妮弗·康纳利 Jennifer Connelly
      杰基·厄尔·哈利 Jackie Earle Haley
      陈东兰 Lana Condor
      小豪尔赫·兰登伯格 Jorge Lendeborg Jr.
      艾莎·冈萨雷斯 Eiza González
      卡斯帕·凡·迪恩 Casper Van Dien
      米歇尔·罗德里格兹 Michelle Rodriguez
      爱德华·诺顿 Edward Norton
      杰夫·法赫 Jeff Fahey
      山姆·麦地那 Sam Medina
      德里克·梅耶斯 Derek Mears
      艾丽·拉蒙特 Elle LaMont
      豪尔赫·A·希门尼斯 Jorge A. Jimenez
      马克·扎罗 Marko Zaror
      比利·布莱尔 Billy Blair
      伦纳德·吴 Leonard Wu
      特里斯坦·里格斯 Tristan Riggs
      迈克尔·洛夫·托利弗 Michael Love Toliver
      金 King
      达塞尔·丹妮尔 Darcel Danielle
      Mark A. White


◎标  签 科幻 | 机器人 | 动作 | 漫画改编 | 美国 | 赛博朋克 | 2019 | 动画

◎简  介

  故事发生在遥远的26世纪,外科医生依德(克里斯托弗·瓦尔兹 Christoph Waltz 饰)在垃圾场里捡到了只剩下头部的机械少女将她带回家中,给她装上了本来为自己已故的女儿所准备的义体,并取名阿丽塔(罗莎·萨拉扎尔 Rosa Salazar 饰)。苏醒后的阿丽塔对这个五彩斑斓但却暴力而又残酷的世界产生了浓厚的兴趣,在结识了青年雨果(基恩·约翰逊 Keean Johnson 饰)后,阿丽塔开始接触名为机动球的运动,并在比赛中展现出了惊人的格斗天赋。
在废铁城居民们的头顶,漂浮着巨大的浮空城市撒冷,废铁城居民们的一切劳作和付出,都是为了给撒冷提供继续运作的燃料。在大财阀维克特(马赫沙拉·阿里 Mahershala Ali 饰)所设立的机动球比赛中,最终获得冠军的人能够获得前往撒冷生活的资格,阿丽塔决定利用自己的格斗天赋参加比赛,却被卷入了一个巨大的阴谋之中。

◎获奖情况

  第5届豆瓣电影年度榜单(2018)
  最值得期待的外语电影(提名)

  第4届豆瓣电影年度榜单(2017)
  最值得期待的外语电影(提名)



Video
ID : 1
Format : HEVC
Format/Info : High Efficiency Video Coding
Commercial name : HDR10
Format profile : Main [email protected]@High
Codec ID : V_MPEGH/ISO/HEVC
Duration : 2 h 1 min
Bit rate : 24.0 Mb/s
Width : 3 840 pixels
Height : 1 608 pixels
Original height : 2 160 pixels
Display aspect ratio : 16:9
Frame rate mode : Constant
Frame rate : 23.976 (24000/1001) FPS
Color space : YUV
Chroma subsampling : 4:2:0 (Type 2)
Bit depth : 10 bits
Bits/(Pixel*Frame) : 0.162
Stream size : 20.4 GiB (96%)
Language : English
Default : Yes
Forced : No
Color range : Limited
Color primaries : BT.2020
Transfer characteristics : PQ
Matrix coefficients : BT.2020 non-constant
Mastering display color primaries : Display P3
Mastering display luminance : min: 0.0050 cd/m2, max: 1000 cd/m2

Audio
ID : 2
Format : E-AC-3 JOC
Format/Info : Enhanced AC-3 with Joint Object Coding
Commercial name : Dolby Digital Plus with Dolby Atmos
Codec ID : A_EAC3
Duration : 2 h 1 min
Bit rate mode : Constant
Bit rate : 576 kb/s
Channel(s) : 6 channels
Channel layout : L R C LFE Ls Rs
Sampling rate : 48.0 kHz
Frame rate : 31.250 FPS (1536 SPF)
Compression mode : Lossy
Delay relative to video : 83 ms
Stream size : 502 MiB (2%)
Language : English
Service kind : Complete Main
Default : Yes
Forced : No
Complexity index : 16
Number of dynamic objects : 15
Bed channel count : 1 channel
Bed channel configuration : LFE

Text #1
ID : 3
Format : UTF-8
Codec ID : S_TEXT/UTF8
Codec ID/Info : UTF-8 Plain Text
Title : English
Language : English
Default : No
Forced : No

Text #2
ID : 4
Format : UTF-8
Codec ID : S_TEXT/UTF8
Codec ID/Info : UTF-8 Plain Text
Title : English (SDH)
Language : English
Default : No
Forced : No

Text #3
ID : 5
Format : UTF-8
Codec ID : S_TEXT/UTF8
Codec ID/Info : UTF-8 Plain Text
Title : Spanish
Language : Spanish
Default : No
Forced : No

Menu
00:00:01.000 : en:Chapter 01
00:03:29.000 : en:Chapter 02
00:07:52.000 : en:Chapter 03
00:10:08.000 : en:Chapter 04
00:13:07.000 : en:Chapter 05
00:15:07.000 : en:Chapter 06
00:18:05.000 : en:Chapter 07
00:22:59.000 : en:Chapter 08
00:25:36.000 : en:Chapter 09
00:31:41.000 : en:Chapter 10
00:33:30.000 : en:Chapter 11
00:36:33.000 : en:Chapter 12
00:38:31.000 : en:Chapter 13
00:42:06.000 : en:Chapter 14
00:45:59.000 : en:Chapter 15
00:48:32.000 : en:Chapter 16
00:52:58.000 : en:Chapter 17
00:55:15.000 : en:Chapter 18
01:00:40.000 : en:Chapter 19
01:02:57.000 : en:Chapter 20
01:05:17.000 : en:Chapter 21
01:10:51.000 : en:Chapter 22
01:13:38.000 : en:Chapter 23
01:16:36.000 : en:Chapter 24
01:18:53.000 : en:Chapter 25
01:22:49.000 : en:Chapter 26
01:24:56.000 : en:Chapter 27
01:28:26.000 : en:Chapter 28
01:33:19.000 : en:Chapter 29
01:36:09.000 : en:Chapter 30
01:41:55.000 : en:Chapter 31
01:45:24.000 : en:Chapter 32
01:48:17.000 : en:Chapter 33
01:51:44.000 : en:Chapter 34
01:54:44.000 : en:Chapter 35
01:56:52.000 : en:Chapter 36





1 个附件 售价 大小 下载 时间

Alita.Battle.Angel.2019.INTERNAL.HDR.2160p.WEB.H265-DEFLATE.torrent 0 金币 54.58K 945 次 1月前

#1楼
发帖时间:2019-07-21 04:04:52   |   回复数:4
911degrees
隐世仙人♂
非常感谢,谢谢分享
1月前 #2楼
liyouchai
隐世仙人♂
谢谢楼主分享资源
1月前 #3楼
jokingcheung
一代宗师
谢谢分享
1月前 #4楼
Eurus
武林高手
HDR的色调看着不太习惯
1月前 #5楼
游客组