conanlcg
超级版主

[2007] [其他] [剧情] [BD-1080P] 伊丽莎白2:黄金时代/伊莉莎白:辉煌年代 Elizabeth.The.Golden.Age.2007.1080p.BluRay.x264.DTS-FGT 10.

-->

帖子完整标题:伊丽莎白2:黄金时代/伊莉莎白:辉煌年代 Elizabeth.The.Golden.Age.2007.1080p.BluRay.x264.DTS-FGT 10.43GB




◎译  名 伊丽莎白2:黄金时代 / 伊莉莎白:辉煌年代 / 传奇女王伊利沙伯:黄金盛世
◎片  名 Elizabeth: The Golden Age
◎年  代 2007
◎产  地 英国 / 法国 / 德国 / 美国
◎类  别 剧情 / 传记 / 历史 / 战争
◎语  言 英语 / 西班牙语 / 瑞典语
◎上映日期 2007-11-02(英国)
◎IMDb评分 6.9/10 from 62414 users
◎IMDb链接 http://www.imdb.com/title/tt0414055
◎豆瓣评分 7.3/10 from 17066 users
◎豆瓣链接 https://movie.douban.com/subject/1827042/
◎片  长 114 分钟
◎导  演 谢加·凯普尔 Shekhar Kapur
◎编  剧 威廉姆·尼克尔森 William Nicholson / Michael Hirst
◎主  演 凯特·布兰切特 Cate Blanchett
      劳伦斯·福克斯 Laurence Fox
      詹迪·莫拉 Jordi Mollà
      杰弗里·拉什 Geoffrey Rush
      约翰·斯拉普内尔 John Shrapnel
      苏珊·林奇 Susan Lynch
      萨曼莎·莫顿 Samantha Morton
      艾比·考尼什 Abbie Cornish
      瑞斯·伊凡斯 Rhys Ifans
      埃迪·雷德梅恩 Eddie Redmayne
      克里夫·欧文 Clive Owen


◎标  签 英国 | 传记 | 历史 | 女性 | 2007 | 政治 | 伊丽莎白 | 剧情

◎简  介

  1585年,此时伊丽莎白一世(凯特?布兰切特 Cate Blanchett 饰)已经52岁。她单身未嫁,政治手腕已经非常成熟,处理国务也比年轻时得心应手。她思想开明,允许人们信仰罗马天主教。然而,却屡屡受到苏格兰女王玛丽?斯图亚特的种种对抗,玛丽甚至派杀手暗杀伊丽莎白未遂。
另一方面,女王还面临着西班牙这个宿敌。西班牙和英国之间的宗教差异,加之海盗活动猖獗的现况,使得二国矛盾日渐尖锐,为日后的战争埋下伏笔。
罗利带着海外新鲜的探险经历在女王面前出现,令女王多年尘封的心有了悸动。然而,女王的爱情,注定了要屈服于国家的利益。
在英国与西班牙的战争中,女王展现出的强大魄力,把大不列颠推向霸主的辉煌巅峰。

◎获奖情况

  第80届奥斯卡金像奖(2008)
  最佳女主角(提名) 凯特·布兰切特
  最佳服装设计 亚历山德拉·伯恩

  第65届金球奖(2008)
  电影类 剧情片最佳女主角(提名) 凯特·布兰切特

  第61届英国电影学院奖(2008)
  电影奖 最佳女主角(提名) 凯特·布兰切特
  电影奖 最佳化妆/发型(提名) 珍妮·希尔科尔
  电影奖 最佳服装设计(提名) 亚历山德拉·伯恩
  电影奖 最佳艺术指导(提名) Guy Hendrix Dyas / 理查德·罗伯茨



Video
ID : 1
Format : AVC
Format/Info : Advanced Video Codec
Format profile : [email protected]
Format settings : CABAC / 4 Ref Frames
Format settings, CABAC : Yes
Format settings, Reference frames : 4 frames
Codec ID : V_MPEG4/ISO/AVC
Duration : 1 h 54 min
Bit rate : 11.5 Mb/s
Width : 1 920 pixels
Height : 1 040 pixels
Display aspect ratio : 1.85:1
Frame rate mode : Constant
Frame rate : 23.976 (24000/1001) FPS
Color space : YUV
Chroma subsampling : 4:2:0
Bit depth : 8 bits
Scan type : Progressive
Bits/(Pixel*Frame) : 0.240
Stream size : 9.22 GiB (88%)
Title : Elizabeth.The.Golden.Age.2007.1080p.BluRay.x264.DTS-FGT
Writing library : x264 core 148 r2795M aaa9aa8
Encoding settings : cabac=1 / ref=4 / deblock=1:-2:-2 / analyse=0x3:0x113 / me=umh / subme=9 / psy=1 / psy_rd=1.00:0.15 / mixed_ref=1 / me_range=16 / chroma_me=1 / trellis=2 / 8x8dct=1 / cqm=0 / deadzone=21,11 / fast_pskip=1 / chroma_qp_offset=-3 / threads=24 / lookahead_threads=3 / sliced_threads=0 / nr=0 / decimate=1 / interlaced=0 / bluray_compat=0 / constrained_intra=0 / bframes=3 / b_pyramid=2 / b_adapt=1 / b_bias=0 / direct=3 / weightb=1 / open_gop=0 / weightp=2 / keyint=250 / keyint_min=25 / scenecut=40 / intra_refresh=0 / rc_lookahead=50 / rc=2pass / mbtree=1 / bitrate=11500 / ratetol=1.0 / qcomp=0.60 / qpmin=0 / qpmax=69 / qpstep=4 / cplxblur=20.0 / qblur=0.5 / vbv_maxrate=31250 / vbv_bufsize=31250 / nal_hrd=none / filler=0 / ip_ratio=1.40 / aq=1:1.00
Language : English
Default : Yes
Forced : No

Audio
ID : 2
Format : DTS
Format/Info : Digital Theater Systems
Codec ID : A_DTS
Duration : 1 h 54 min
Bit rate mode : Constant
Bit rate : 1 509 kb/s
Channel(s) : 6 channels
Channel layout : C L R Ls Rs LFE
Sampling rate : 48.0 kHz
Frame rate : 93.750 FPS (512 SPF)
Bit depth : 24 bits
Compression mode : Lossy
Stream size : 1.21 GiB (12%)
Title : Elizabeth.The.Golden.Age.2007.1080p.BluRay.x264.DTS-FGT
Language : English
Default : Yes
Forced : No

Text
ID : 3
Format : UTF-8
Codec ID : S_TEXT/UTF8
Codec ID/Info : UTF-8 Plain Text
Duration : 1 h 42 min
Bit rate : 39 b/s
Count of elements : 981
Stream size : 29.5 KiB (0%)
Language : English
Default : Yes
Forced : No

Menu
00:00:00.000 : en:Religious Loyalties
00:05:40.006 : en:Heir to the Throne
00:09:19.684 : en:Political Pirate
00:15:48.739 : en:Familial Betrayal
00:19:25.164 : en:In the Queen\'s Favor
00:25:11.677 : en:A New World
00:31:28.261 : en:Lying in Wait
00:38:25.386 : en:Enterprise of England
00:44:24.328 : en:Royal Warrant
00:48:52.805 : en:The Virgin Queen
00:53:24.368 : en:In Control
00:59:30.066 : en:Royal Attack
01:05:24.295 : en:No Time for Mercy
01:10:03.658 : en:Formal Execution
01:14:19.121 : en:Holy War Declared
01:20:19.815 : en:Prepare for the Worst
01:26:22.636 : en:In the Midst of Battle
01:33:28.269 : en:Defeat of the Armada
01:40:23.100 : en:Mother to Her People
01:46:38.392 : en:End Titles





1 个附件 售价 大小 下载 时间

Elizabeth.The.Golden.Age.2007.1080p.BluRay.x264.DTS-FGT.torrent 0 金币 52.72K 560 次 1月前

#1楼
发帖时间:2019-07-21 03:05:51   |   回复数:2
911degrees
隐世仙人♂
非常感谢,谢谢分享
1月前 #2楼
liyouchai
隐世仙人♂
谢谢楼主分享资源
1月前 #3楼
游客组