conanlcg
超级版主

[2006] [其他] [惊悚] [WEB-1080P] 湿地/阴沼地 The.Marsh.2006.1080p.WEBRip.x264-RARBG 1.76GB

-->

帖子完整标题:湿地/阴沼地 The.Marsh.2006.1080p.WEBRip.x264-RARBG 1.76GB




◎译  名 湿地 / 阴沼地
◎片  名 The Marsh
◎年  代 2006
◎产  地 加拿大
◎类  别 惊悚 / 恐怖
◎语  言 英语
◎上映日期 2006-05-18
◎IMDb评分 4.9/10 from 2909 users
◎IMDb链接 http://www.imdb.com/title/tt0496350
◎豆瓣评分 5.2/10 from 144 users
◎豆瓣链接 https://movie.douban.com/subject/2043718/
◎片  长 Greece: 90 分钟
◎导  演 Jordan Barker
◎主  演 Gabrielle Anwar
      Justin Louis
      Forest Whitaker


◎标  签 恐怖 | 惊悚 | 加拿大 | 湿地 | 我看过的英语电影 | 我看过的恐怖电影 | 2006 | 美国电影

◎简  介

  功成名就的童话作家克莱尔?哈罗维(Gabrielle Anwar 饰)最近一段时间饱受噩梦折磨,她反复梦见自己追逐一个女孩时遇到一个面容恐怖的男人,然后掉进沼泽地中。某天,她在看电视时忽然发现某乡村的罗斯马什农场与梦中出现的场所极为相似。好奇心促使克莱尔利用假期来到此地。
但是,在此停留的期间内,克莱尔不断受到一个小女孩和一个少年的鬼魂的骚扰。通过在当地人士的朋友,克莱尔联系上了灵异专家乔菲?亨特(Forest Whitaker 饰)。在一行人的探究下,关于这个鬼屋以及克莱尔噩梦背后的秘密被慢慢揭开……

Video
ID : 1
Format : AVC
Format/Info : Advanced Video Codec
Format profile : [email protected]
Format settings : CABAC / 4 Ref Frames
Format settings, CABAC : Yes
Format settings, Reference frames : 4 frames
Codec ID : avc1
Codec ID/Info : Advanced Video Coding
Duration : 1 h 32 min
Bit rate : 2 500 kb/s
Width : 1 920 pixels
Height : 1 080 pixels
Display aspect ratio : 16:9
Frame rate mode : Constant
Frame rate : 23.976 (23976/1000) FPS
Color space : YUV
Chroma subsampling : 4:2:0
Bit depth : 8 bits
Scan type : Progressive
Bits/(Pixel*Frame) : 0.050
Stream size : 1.61 GiB (92%)
Writing library : x264 core 152 r2851M ba24899
Encoding settings : cabac=1 / ref=4 / deblock=1:-1:-1 / analyse=0x3:0x113 / me=umh / subme=9 / psy=1 / psy_rd=1.00:0.15 / mixed_ref=1 / me_range=24 / chroma_me=1 / trellis=2 / 8x8dct=1 / cqm=0 / deadzone=21,11 / fast_pskip=1 / chroma_qp_offset=-3 / threads=16 / lookahead_threads=4 / sliced_threads=0 / nr=0 / decimate=1 / interlaced=0 / bluray_compat=0 / constrained_intra=0 / bframes=3 / b_pyramid=2 / b_adapt=2 / b_bias=0 / direct=3 / weightb=1 / open_gop=0 / weightp=2 / keyint=250 / keyint_min=25 / scenecut=40 / intra_refresh=0 / rc_lookahead=50 / rc=2pass / mbtree=1 / bitrate=2500 / ratetol=1.0 / qcomp=0.60 / qpmin=0 / qpmax=69 / qpstep=4 / cplxblur=20.0 / qblur=0.5 / vbv_maxrate=31250 / vbv_bufsize=31250 / nal_hrd=none / filler=0 / ip_ratio=1.40 / aq=3:1.00
Encoded date : UTC 2019-07-20 02:22:56
Tagged date : UTC 2019-07-20 02:22:56
Codec configuration box : avcC

Audio
ID : 2
Format : AAC LC
Format/Info : Advanced Audio Codec Low Complexity
Codec ID : mp4a-40-2
Duration : 1 h 32 min
Duration_LastFrame : -11 ms
Bit rate mode : Constant
Bit rate : 224 kb/s
Channel(s) : 6 channels
Channel layout : C L R Ls Rs LFE
Sampling rate : 48.0 kHz
Frame rate : 46.875 FPS (1024 SPF)
Compression mode : Lossy
Stream size : 148 MiB (8%)
Language : English
Default : Yes
Alternate group : 1
Encoded date : UTC 2019-07-20 02:22:56
Tagged date : UTC 2019-07-20 02:22:56





1 个附件 售价 大小 下载 时间

The.Marsh.2006.1080p.WEBRip.x264-RARBG.torrent 0 金币 18.14K 168 次 3月前

#1楼
发帖时间:2019-07-21 01:01:16   |   回复数:2
liyouchai
隐世仙人♂
谢谢楼主分享资源
3月前 #2楼
911degrees
隐世仙人♂
非常感谢,谢谢分享
3月前 #3楼
游客组