conanlcg
超级版主

[2019] [其他] [动作] [4K-原盘] 阿丽塔:战斗天使/艾莉塔:战斗天使 Alita.Battle.Angel.2019.2160p.BluRay.REMUX.HEVC.DTS-HD.MA.True

-->

帖子完整标题:阿丽塔:战斗天使/艾莉塔:战斗天使 Alita.Battle.Angel.2019.2160p.BluRay.REMUX.HEVC.DTS-HD.MA.TrueHD.7.1.Atmos-FGT 53.30GB




◎译  名 阿丽塔:战斗天使 / 艾莉塔:战斗天使(台) / 铳梦 / 铳梦:战斗天使(港)
◎片  名 Alita: Battle Angel
◎年  代 2019
◎产  地 美国 / 加拿大 / 阿根廷
◎类  别 动作 / 科幻 / 冒险
◎语  言 英语 / 西班牙语
◎上映日期 2019-02-05(台湾) / 2019-02-14(美国) / 2019-02-22(中国大陆)
◎IMDb评分 7.5/10 from 102771 users
◎IMDb链接 http://www.imdb.com/title/tt0437086
◎豆瓣评分 7.6/10 from 343930 users
◎豆瓣链接 https://movie.douban.com/subject/1652592/
◎片  长 122分钟
◎导  演 罗伯特·罗德里格兹 Robert Rodriguez
◎编  剧 詹姆斯·卡梅隆 James Cameron / 莱塔·卡罗格里迪斯 Laeta Kalogridis / 木城幸人 Yukito Kishiro
◎主  演 罗莎·萨拉查 Rosa Salazar
      克里斯托弗·沃尔兹 Christoph Waltz
      基恩·约翰逊 Keean Johnson
      艾德·斯克林 Ed Skrein
      马赫沙拉·阿里 Mahershala Ali
      詹妮弗·康纳利 Jennifer Connelly
      杰基·厄尔·哈利 Jackie Earle Haley
      陈东兰 Lana Condor
      小豪尔赫·兰登伯格 Jorge Lendeborg Jr.
      艾莎·冈萨雷斯 Eiza González
      卡斯帕·凡·迪恩 Casper Van Dien
      米歇尔·罗德里格兹 Michelle Rodriguez
      爱德华·诺顿 Edward Norton
      杰夫·法赫 Jeff Fahey
      山姆·麦地那 Sam Medina
      德里克·梅耶斯 Derek Mears
      艾丽·拉蒙特 Elle LaMont
      豪尔赫·A·希门尼斯 Jorge A. Jimenez
      马克·扎罗 Marko Zaror
      比利·布莱尔 Billy Blair
      伦纳德·吴 Leonard Wu
      特里斯坦·里格斯 Tristan Riggs
      迈克尔·洛夫·托利弗 Michael Love Toliver
      金 King
      达塞尔·丹妮尔 Darcel Danielle
      Mark A. White


◎标  签 科幻 | 机器人 | 动作 | 漫画改编 | 美国 | 赛博朋克 | 2019 | 动画

◎简  介

  故事发生在遥远的26世纪,外科医生依德(克里斯托弗·瓦尔兹 Christoph Waltz 饰)在垃圾场里捡到了只剩下头部的机械少女将她带回家中,给她装上了本来为自己已故的女儿所准备的义体,并取名阿丽塔(罗莎·萨拉扎尔 Rosa Salazar 饰)。苏醒后的阿丽塔对这个五彩斑斓但却暴力而又残酷的世界产生了浓厚的兴趣,在结识了青年雨果(基恩·约翰逊 Keean Johnson 饰)后,阿丽塔开始接触名为机动球的运动,并在比赛中展现出了惊人的格斗天赋。
在废铁城居民们的头顶,漂浮着巨大的浮空城市撒冷,废铁城居民们的一切劳作和付出,都是为了给撒冷提供继续运作的燃料。在大财阀维克特(马赫沙拉·阿里 Mahershala Ali 饰)所设立的机动球比赛中,最终获得冠军的人能够获得前往撒冷生活的资格,阿丽塔决定利用自己的格斗天赋参加比赛,却被卷入了一个巨大的阴谋之中。

◎获奖情况

  第5届豆瓣电影年度榜单(2018)
  最值得期待的外语电影(提名)

  第4届豆瓣电影年度榜单(2017)
  最值得期待的外语电影(提名)



Video #1
ID : 1
Format : HEVC
Format/Info : High Efficiency Video Coding
Format profile : Main [email protected]@High
HDR format : SMPTE ST 2094 App 4, Version 1, HDR10+ Profile A compatible
Codec ID : V_MPEGH/ISO/HEVC
Duration : 2 h 1 min
Bit rate : 41.4 Mb/s
Width : 3 840 pixels
Height : 2 160 pixels
Display aspect ratio : 16:9
Frame rate mode : Constant
Frame rate : 23.976 (24000/1001) FPS
Color space : YUV
Chroma subsampling : 4:2:0 (Type 2)
Bit depth : 10 bits
Bits/(Pixel*Frame) : 0.208
Stream size : 35.2 GiB (66%)
Title : Alita.Battle.Angel.2019.2160p.BluRay.REMUX.HEVC.DTS-HD.MA.TrueHD.7.1.Atmos-FGT
Language : English
Default : Yes
Forced : No
Color range : Limited
Color primaries : BT.2020
Transfer characteristics : PQ
Matrix coefficients : BT.2020 non-constant
Mastering display color primaries : Display P3
Mastering display luminance : min: 0.0001 cd/m2, max: 1000 cd/m2
Maximum Content Light Level : 233 cd/m2
Maximum Frame-Average Light Level : 63 cd/m2

Video #2
ID : 2
Format : HEVC
Format/Info : High Efficiency Video Coding
Format profile : Main [email protected]@High
HDR format : SMPTE ST 2086, HDR10 compatible
Codec ID : V_MPEGH/ISO/HEVC
Duration : 2 h 1 min
Bit rate : 2 133 kb/s
Width : 1 920 pixels
Height : 1 080 pixels
Display aspect ratio : 16:9
Frame rate mode : Constant
Frame rate : 23.976 (24000/1001) FPS
Color space : YUV
Chroma subsampling : 4:2:0 (Type 2)
Bit depth : 10 bits
Bits/(Pixel*Frame) : 0.043
Stream size : 1.82 GiB (3%)
Title : Alita.Battle.Angel.2019.2160p.BluRay.REMUX.HEVC.DTS-HD.MA.TrueHD.7.1.Atmos-FGT
Language : English
Default : No
Forced : No
Color range : Limited
Color primaries : BT.2020
Transfer characteristics : PQ
Matrix coefficients : BT.2020 non-constant
Mastering display color primaries : Display P3
Mastering display luminance : min: 0.0001 cd/m2, max: 1000 cd/m2

Audio #1
ID : 3
Format : MLP FBA 16-ch
Format/Info : Meridian Lossless Packing FBA with 16-channel presentation
Commercial name : Dolby TrueHD with Dolby Atmos
Codec ID : A_TRUEHD
Duration : 2 h 1 min
Bit rate mode : Variable
Bit rate : 5 013 kb/s
Channel(s) : 8 channels
Channel layout : L R C LFE Ls Rs Lb Rb
Sampling rate : 48.0 kHz
Frame rate : 1 200.000 FPS (40 SPF)
Compression mode : Lossless
Stream size : 4.30 GiB (8%)
Title : Alita.Battle.Angel.2019.2160p.BluRay.REMUX.HEVC.DTS-HD.MA.TrueHD.7.1.Atmos-FGT
Language : English
Default : Yes
Forced : No
Number of dynamic objects : 13
Bed channel count : 1 channel
Bed channel configuration : LFE

Audio #2
ID : 4
Format : DTS XLL
Format/Info : Digital Theater Systems
Commercial name : DTS-HD Master Audio
Codec ID : A_DTS
Duration : 2 h 1 min
Bit rate mode : Variable
Bit rate : 4 104 kb/s
Channel(s) : 8 channels
Channel layout : C L R LFE Lb Rb Lss Rss
Sampling rate : 48.0 kHz
Frame rate : 93.750 FPS (512 SPF)
Bit depth : 24 bits
Compression mode : Lossless
Stream size : 3.50 GiB (7%)
Title : Alita.Battle.Angel.2019.2160p.BluRay.REMUX.HEVC.DTS-HD.MA.TrueHD.7.1.Atmos-FGT
Language : English
Default : No
Forced : No

Audio #3
ID : 5
Format : AC-3
Format/Info : Audio Coding 3
Commercial name : Dolby Digital
Codec ID : A_AC3
Duration : 2 h 1 min
Bit rate mode : Constant
Bit rate : 640 kb/s
Channel(s) : 6 channels
Channel layout : L R C LFE Ls Rs
Sampling rate : 48.0 kHz
Frame rate : 31.250 FPS (1536 SPF)
Bit depth : 16 bits
Compression mode : Lossy
Stream size : 558 MiB (1%)
Title : Alita.Battle.Angel.2019.2160p.BluRay.REMUX.HEVC.DTS-HD.MA.TrueHD.7.1.Atmos-FGT
Language : English
Service kind : Complete Main
Default : No
Forced : No

Audio #4
ID : 6
Format : DTS XLL
Format/Info : Digital Theater Systems
Commercial name : DTS-HD Master Audio
Codec ID : A_DTS
Duration : 2 h 1 min
Bit rate mode : Variable
Bit rate : 2 058 kb/s
Channel(s) : 2 channels
Channel layout : L R
Sampling rate : 48.0 kHz
Frame rate : 93.750 FPS (512 SPF)
Bit depth : 24 bits
Compression mode : Lossless
Stream size : 1.75 GiB (3%)
Title : Alita.Battle.Angel.2019.2160p.BluRay.REMUX.HEVC.DTS-HD.MA.TrueHD.7.1.Atmos-FGT
Language : English
Default : No
Forced : No

Audio #5
ID : 7
Format : AC-3
Format/Info : Audio Coding 3
Commercial name : Dolby Digital
Codec ID : A_AC3
Duration : 2 h 1 min
Bit rate mode : Constant
Bit rate : 448 kb/s
Channel(s) : 6 channels
Channel layout : L R C LFE Ls Rs
Sampling rate : 48.0 kHz
Frame rate : 31.250 FPS (1536 SPF)
Bit depth : 16 bits
Compression mode : Lossy
Stream size : 391 MiB (1%)
Title : Alita.Battle.Angel.2019.2160p.BluRay.REMUX.HEVC.DTS-HD.MA.TrueHD.7.1.Atmos-FGT
Language : English
Service kind : Complete Main
Default : No
Forced : No

Audio #6
ID : 8
Format : AC-3
Format/Info : Audio Coding 3
Commercial name : Dolby Digital
Codec ID : A_AC3
Duration : 2 h 1 min
Bit rate mode : Constant
Bit rate : 448 kb/s
Channel(s) : 6 channels
Channel layout : L R C LFE Ls Rs
Sampling rate : 48.0 kHz
Frame rate : 31.250 FPS (1536 SPF)
Bit depth : 16 bits
Compression mode : Lossy
Stream size : 391 MiB (1%)
Title : Alita.Battle.Angel.2019.2160p.BluRay.REMUX.HEVC.DTS-HD.MA.TrueHD.7.1.Atmos-FGT
Language : Spanish
Service kind : Complete Main
Default : No
Forced : No

Audio #7
ID : 9
Format : DTS
Format/Info : Digital Theater Systems
Codec ID : A_DTS
Duration : 2 h 1 min
Bit rate mode : Constant
Bit rate : 768 kb/s
Channel(s) : 6 channels
Channel layout : C L R Ls Rs LFE
Sampling rate : 48.0 kHz
Frame rate : 93.750 FPS (512 SPF)
Bit depth : 24 bits
Compression mode : Lossy
Stream size : 670 MiB (1%)
Title : Alita.Battle.Angel.2019.2160p.BluRay.REMUX.HEVC.DTS-HD.MA.TrueHD.7.1.Atmos-FGT
Language : French
Default : No
Forced : No

Audio #8
ID : 10
Format : DTS
Format/Info : Digital Theater Systems
Codec ID : A_DTS
Duration : 2 h 1 min
Bit rate mode : Constant
Bit rate : 768 kb/s
Channel(s) : 6 channels
Channel layout : C L R Ls Rs LFE
Sampling rate : 48.0 kHz
Frame rate : 93.750 FPS (512 SPF)
Bit depth : 24 bits
Compression mode : Lossy
Stream size : 670 MiB (1%)
Title : Alita.Battle.Angel.2019.2160p.BluRay.REMUX.HEVC.DTS-HD.MA.TrueHD.7.1.Atmos-FGT
Language : Spanish
Default : No
Forced : No

Audio #9
ID : 11
Format : DTS
Format/Info : Digital Theater Systems
Codec ID : A_DTS
Duration : 2 h 1 min
Bit rate mode : Constant
Bit rate : 768 kb/s
Channel(s) : 6 channels
Channel layout : C L R Ls Rs LFE
Sampling rate : 48.0 kHz
Frame rate : 93.750 FPS (512 SPF)
Bit depth : 24 bits
Compression mode : Lossy
Stream size : 670 MiB (1%)
Title : Alita.Battle.Angel.2019.2160p.BluRay.REMUX.HEVC.DTS-HD.MA.TrueHD.7.1.Atmos-FGT
Language : German
Default : No
Forced : No

Audio #10
ID : 12
Format : DTS
Format/Info : Digital Theater Systems
Codec ID : A_DTS
Duration : 2 h 1 min
Bit rate mode : Constant
Bit rate : 768 kb/s
Channel(s) : 6 channels
Channel layout : C L R Ls Rs LFE
Sampling rate : 48.0 kHz
Frame rate : 93.750 FPS (512 SPF)
Bit depth : 24 bits
Compression mode : Lossy
Stream size : 670 MiB (1%)
Title : Alita.Battle.Angel.2019.2160p.BluRay.REMUX.HEVC.DTS-HD.MA.TrueHD.7.1.Atmos-FGT
Language : Italian
Default : No
Forced : No

Audio #11
ID : 13
Format : DTS
Format/Info : Digital Theater Systems
Codec ID : A_DTS
Duration : 2 h 1 min
Bit rate mode : Constant
Bit rate : 768 kb/s
Channel(s) : 6 channels
Channel layout : C L R Ls Rs LFE
Sampling rate : 48.0 kHz
Frame rate : 93.750 FPS (512 SPF)
Bit depth : 24 bits
Compression mode : Lossy
Stream size : 670 MiB (1%)
Title : Alita.Battle.Angel.2019.2160p.BluRay.REMUX.HEVC.DTS-HD.MA.TrueHD.7.1.Atmos-FGT
Language : Russian
Default : No
Forced : No

Audio #12
ID : 14
Format : AC-3
Format/Info : Audio Coding 3
Commercial name : Dolby Digital
Codec ID : A_AC3
Duration : 2 h 1 min
Bit rate mode : Constant
Bit rate : 448 kb/s
Channel(s) : 6 channels
Channel layout : L R C LFE Ls Rs
Sampling rate : 48.0 kHz
Frame rate : 31.250 FPS (1536 SPF)
Bit depth : 16 bits
Compression mode : Lossy
Stream size : 391 MiB (1%)
Title : Alita.Battle.Angel.2019.2160p.BluRay.REMUX.HEVC.DTS-HD.MA.TrueHD.7.1.Atmos-FGT
Language : Czech
Service kind : Complete Main
Default : No
Forced : No

Audio #13
ID : 15
Format : AC-3
Format/Info : Audio Coding 3
Commercial name : Dolby Digital
Codec ID : A_AC3
Duration : 2 h 1 min
Bit rate mode : Constant
Bit rate : 448 kb/s
Channel(s) : 6 channels
Channel layout : L R C LFE Ls Rs
Sampling rate : 48.0 kHz
Frame rate : 31.250 FPS (1536 SPF)
Bit depth : 16 bits
Compression mode : Lossy
Stream size : 391 MiB (1%)
Title : Alita.Battle.Angel.2019.2160p.BluRay.REMUX.HEVC.DTS-HD.MA.TrueHD.7.1.Atmos-FGT
Language : Hindi
Service kind : Complete Main
Default : No
Forced : No

Audio #14
ID : 16
Format : AC-3
Format/Info : Audio Coding 3
Commercial name : Dolby Digital
Codec ID : A_AC3
Duration : 2 h 1 min
Bit rate mode : Constant
Bit rate : 448 kb/s
Channel(s) : 6 channels
Channel layout : L R C LFE Ls Rs
Sampling rate : 48.0 kHz
Frame rate : 31.250 FPS (1536 SPF)
Bit depth : 16 bits
Compression mode : Lossy
Stream size : 391 MiB (1%)
Title : Alita.Battle.Angel.2019.2160p.BluRay.REMUX.HEVC.DTS-HD.MA.TrueHD.7.1.Atmos-FGT
Language : Hungarian
Service kind : Complete Main
Default : No
Forced : No

Audio #15
ID : 17
Format : AC-3
Format/Info : Audio Coding 3
Commercial name : Dolby Digital
Codec ID : A_AC3
Duration : 2 h 1 min
Bit rate mode : Constant
Bit rate : 448 kb/s
Channel(s) : 6 channels
Channel layout : L R C LFE Ls Rs
Sampling rate : 48.0 kHz
Frame rate : 31.250 FPS (1536 SPF)
Bit depth : 16 bits
Compression mode : Lossy
Stream size : 391 MiB (1%)
Title : Alita.Battle.Angel.2019.2160p.BluRay.REMUX.HEVC.DTS-HD.MA.TrueHD.7.1.Atmos-FGT
Language : Polish
Service kind : Complete Main
Default : No
Forced : No

Audio #16
ID : 18
Format : AC-3
Format/Info : Audio Coding 3
Commercial name : Dolby Digital
Codec ID : A_AC3
Duration : 2 h 1 min
Bit rate mode : Constant
Bit rate : 448 kb/s
Channel(s) : 6 channels
Channel layout : L R C LFE Ls Rs
Sampling rate : 48.0 kHz
Frame rate : 31.250 FPS (1536 SPF)
Bit depth : 16 bits
Compression mode : Lossy
Stream size : 391 MiB (1%)
Title : Alita.Battle.Angel.2019.2160p.BluRay.REMUX.HEVC.DTS-HD.MA.TrueHD.7.1.Atmos-FGT
Language : Thai
Service kind : Complete Main
Default : No
Forced : No

Text #1
ID : 19
Format : UTF-8
Codec ID : S_TEXT/UTF8
Codec ID/Info : UTF-8 Plain Text
Duration : 1 h 55 min
Bit rate : 41 b/s
Count of elements : 1347
Stream size : 34.8 KiB (0%)
Title : English-SRT
Language : English
Default : Yes
Forced : No

Text #2
ID : 20
Format : UTF-8
Codec ID : S_TEXT/UTF8
Codec ID/Info : UTF-8 Plain Text
Duration : 1 h 55 min
Bit rate : 46 b/s
Count of elements : 1588
Stream size : 39.2 KiB (0%)
Title : English-SDH-SRT
Language : English
Default : No
Forced : No

Text #3
ID : 21
Format : PGS
Muxing mode : zlib
Codec ID : S_HDMV/PGS
Codec ID/Info : Picture based subtitle format used on BDs/HD-DVDs
Duration : 1 h 58 min
Bit rate : 30.6 kb/s
Count of elements : 3180
Stream size : 26.0 MiB (0%)
Title : English-PGS
Language : English
Default : No
Forced : No

Text #4
ID : 22
Format : PGS
Muxing mode : zlib
Codec ID : S_HDMV/PGS
Codec ID/Info : Picture based subtitle format used on BDs/HD-DVDs
Duration : 2 h 1 min
Bit rate : 23.5 kb/s
Count of elements : 2476
Stream size : 20.4 MiB (0%)
Title : Spanish-PGS
Language : Spanish
Default : No
Forced : No

Text #5
ID : 23
Format : PGS
Muxing mode : zlib
Codec ID : S_HDMV/PGS
Codec ID/Info : Picture based subtitle format used on BDs/HD-DVDs
Duration : 2 h 1 min
Bit rate : 21.3 kb/s
Count of elements : 2608
Stream size : 18.5 MiB (0%)
Title : French-PGS
Language : French
Default : No
Forced : No

Text #6
ID : 24
Format : PGS
Muxing mode : zlib
Codec ID : S_HDMV/PGS
Codec ID/Info : Picture based subtitle format used on BDs/HD-DVDs
Duration : 25 min 5 s
Bit rate : 187 b/s
Count of elements : 4
Stream size : 34.4 KiB (0%)
Title : French-FORCED-PGS
Language : French
Default : No
Forced : No

Text #7
ID : 25
Format : PGS
Muxing mode : zlib
Codec ID : S_HDMV/PGS
Codec ID/Info : Picture based subtitle format used on BDs/HD-DVDs
Duration : 2 h 1 min
Bit rate : 23.2 kb/s
Count of elements : 2500
Stream size : 20.2 MiB (0%)
Title : Spanish-PGS
Language : Spanish
Default : No
Forced : No

Text #8
ID : 26
Format : PGS
Muxing mode : zlib
Codec ID : S_HDMV/PGS
Codec ID/Info : Picture based subtitle format used on BDs/HD-DVDs
Duration : 1 h 50 min
Bit rate : 83 b/s
Count of elements : 6
Stream size : 67.7 KiB (0%)
Title : Spanish-FORCED-PGS
Language : Spanish
Default : No
Forced : No

Text #9
ID : 27
Format : PGS
Muxing mode : zlib
Codec ID : S_HDMV/PGS
Codec ID/Info : Picture based subtitle format used on BDs/HD-DVDs
Duration : 2 h 1 min
Bit rate : 23.8 kb/s
Count of elements : 1906
Stream size : 20.6 MiB (0%)
Title : Danish-PGS
Language : Danish
Default : No
Forced : No

Text #10
ID : 28
Format : PGS
Muxing mode : zlib
Codec ID : S_HDMV/PGS
Codec ID/Info : Picture based subtitle format used on BDs/HD-DVDs
Duration : 2 h 1 min
Bit rate : 21.9 kb/s
Count of elements : 1956
Stream size : 19.0 MiB (0%)
Title : Dutch-PGS
Language : Dutch
Default : No
Forced : No

Text #11
ID : 29
Format : PGS
Muxing mode : zlib
Codec ID : S_HDMV/PGS
Codec ID/Info : Picture based subtitle format used on BDs/HD-DVDs
Duration : 2 h 1 min
Bit rate : 22.2 kb/s
Count of elements : 2510
Stream size : 19.3 MiB (0%)
Title : Finnish-PGS
Language : Finnish
Default : No
Forced : No

Text #12
ID : 30
Format : PGS
Muxing mode : zlib
Codec ID : S_HDMV/PGS
Codec ID/Info : Picture based subtitle format used on BDs/HD-DVDs
Duration : 2 h 1 min
Bit rate : 24.7 kb/s
Count of elements : 2488
Stream size : 21.5 MiB (0%)
Title : German-PGS
Language : German
Default : No
Forced : No

Text #13
ID : 31
Format : PGS
Muxing mode : zlib
Codec ID : S_HDMV/PGS
Codec ID/Info : Picture based subtitle format used on BDs/HD-DVDs
Duration : 2 h 1 min
Bit rate : 23.1 kb/s
Count of elements : 2522
Stream size : 20.0 MiB (0%)
Title : Italian-PGS
Language : Italian
Default : No
Forced : No

Text #14
ID : 32
Format : PGS
Muxing mode : zlib
Codec ID : S_HDMV/PGS
Codec ID/Info : Picture based subtitle format used on BDs/HD-DVDs
Duration : 1 h 50 min
Bit rate : 163 b/s
Count of elements : 10
Stream size : 133 KiB (0%)
Title : Italian-FORCED-PGS
Language : Italian
Default : No
Forced : No

Text #15
ID : 33
Format : PGS
Muxing mode : zlib
Codec ID : S_HDMV/PGS
Codec ID/Info : Picture based subtitle format used on BDs/HD-DVDs
Duration : 1 h 57 min
Bit rate : 24.5 kb/s
Count of elements : 2518
Stream size : 20.6 MiB (0%)
Title : Norwegian-PGS
Language : Norwegian
Default : No
Forced : No

Text #16
ID : 34
Format : PGS
Muxing mode : zlib
Codec ID : S_HDMV/PGS
Codec ID/Info : Picture based subtitle format used on BDs/HD-DVDs
Duration : 2 h 1 min
Bit rate : 22.8 kb/s
Count of elements : 2112
Stream size : 19.8 MiB (0%)
Title : Russian-PGS
Language : Russian
Default : No
Forced : No

Text #17
ID : 35
Format : PGS
Muxing mode : zlib
Codec ID : S_HDMV/PGS
Codec ID/Info : Picture based subtitle format used on BDs/HD-DVDs
Duration : 25 min 5 s
Bit rate : 313 b/s
Count of elements : 4
Stream size : 57.7 KiB (0%)
Title : Russian-FORCED-PGS
Language : Russian
Default : No
Forced : No

Text #18
ID : 36
Format : PGS
Muxing mode : zlib
Codec ID : S_HDMV/PGS
Codec ID/Info : Picture based subtitle format used on BDs/HD-DVDs
Duration : 2 h 1 min
Bit rate : 23.0 kb/s
Count of elements : 2522
Stream size : 20.0 MiB (0%)
Title : Swedish-PGS
Language : Swedish
Default : No
Forced : No

Text #19
ID : 37
Format : PGS
Muxing mode : zlib
Codec ID : S_HDMV/PGS
Codec ID/Info : Picture based subtitle format used on BDs/HD-DVDs
Duration : 2 h 1 min
Bit rate : 18.2 kb/s
Count of elements : 2524
Stream size : 15.8 MiB (0%)
Title : Chinese-PGS
Language : Chinese
Default : No
Forced : No

Text #20
ID : 38
Format : PGS
Muxing mode : zlib
Codec ID : S_HDMV/PGS
Codec ID/Info : Picture based subtitle format used on BDs/HD-DVDs
Duration : 2 h 1 min
Bit rate : 20.8 kb/s
Count of elements : 2518
Stream size : 18.0 MiB (0%)
Title : Czech-PGS
Language : Czech
Default : No
Forced : No

Text #21
ID : 39
Format : PGS
Muxing mode : zlib
Codec ID : S_HDMV/PGS
Codec ID/Info : Picture based subtitle format used on BDs/HD-DVDs
Duration : 1 h 20 min
Bit rate : 147 b/s
Count of elements : 6
Stream size : 87.0 KiB (0%)
Title : Czech-FORCED-PGS
Language : Czech
Default : No
Forced : No

Text #22
ID : 40
Format : PGS
Muxing mode : zlib
Codec ID : S_HDMV/PGS
Codec ID/Info : Picture based subtitle format used on BDs/HD-DVDs
Duration : 2 h 1 min
Bit rate : 26.3 kb/s
Count of elements : 2332
Stream size : 22.8 MiB (0%)
Title : Greek-PGS
Language : Greek
Default : No
Forced : No

Text #23
ID : 41
Format : PGS
Muxing mode : zlib
Codec ID : S_HDMV/PGS
Codec ID/Info : Picture based subtitle format used on BDs/HD-DVDs
Duration : 2 h 1 min
Bit rate : 22.0 kb/s
Count of elements : 2558
Stream size : 19.0 MiB (0%)
Title : Hindi-PGS
Language : Hindi
Default : No
Forced : No

Text #24
ID : 42
Format : PGS
Muxing mode : zlib
Codec ID : S_HDMV/PGS
Codec ID/Info : Picture based subtitle format used on BDs/HD-DVDs
Duration : 1 h 20 min
Bit rate : 58 b/s
Count of elements : 4
Stream size : 34.3 KiB (0%)
Title : Hindi-FORCED-PGS
Language : Hindi
Default : No
Forced : No

Text #25
ID : 43
Format : PGS
Muxing mode : zlib
Codec ID : S_HDMV/PGS
Codec ID/Info : Picture based subtitle format used on BDs/HD-DVDs
Duration : 2 h 1 min
Bit rate : 22.9 kb/s
Count of elements : 2512
Stream size : 19.9 MiB (0%)
Title : Hungarian-PGS
Language : Hungarian
Default : No
Forced : No

Text #26
ID : 44
Format : PGS
Muxing mode : zlib
Codec ID : S_HDMV/PGS
Codec ID/Info : Picture based subtitle format used on BDs/HD-DVDs
Duration : 1 h 50 min
Bit rate : 67 b/s
Count of elements : 4
Stream size : 55.1 KiB (0%)
Title : Hungarian-FORCED-PGS
Language : Hungarian
Default : No
Forced : No

Text #27
ID : 45
Format : PGS
Muxing mode : zlib
Codec ID : S_HDMV/PGS
Codec ID/Info : Picture based subtitle format used on BDs/HD-DVDs
Duration : 2 h 1 min
Bit rate : 15.4 kb/s
Count of elements : 2492
Stream size : 13.4 MiB (0%)
Title : Korean-PGS
Language : Korean
Default : No
Forced : No

Text #28
ID : 46
Format : PGS
Muxing mode : zlib
Codec ID : S_HDMV/PGS
Codec ID/Info : Picture based subtitle format used on BDs/HD-DVDs
Duration : 2 h 1 min
Bit rate : 18.6 kb/s
Count of elements : 2522
Stream size : 16.2 MiB (0%)
Title : Chinese-PGS
Language : Chinese
Default : No
Forced : No

Text #29
ID : 47
Format : PGS
Muxing mode : zlib
Codec ID : S_HDMV/PGS
Codec ID/Info : Picture based subtitle format used on BDs/HD-DVDs
Duration : 2 h 1 min
Bit rate : 21.0 kb/s
Count of elements : 2460
Stream size : 18.3 MiB (0%)
Title : Polish-PGS
Language : Polish
Default : No
Forced : No

Text #30
ID : 48
Format : PGS
Muxing mode : zlib
Codec ID : S_HDMV/PGS
Codec ID/Info : Picture based subtitle format used on BDs/HD-DVDs
Duration : 1 h 20 min
Bit rate : 295 b/s
Count of elements : 10
Stream size : 174 KiB (0%)
Title : Polish-FORCED-PGS
Language : Polish
Default : No
Forced : No

Text #31
ID : 49
Format : PGS
Muxing mode : zlib
Codec ID : S_HDMV/PGS
Codec ID/Info : Picture based subtitle format used on BDs/HD-DVDs
Duration : 2 h 1 min
Bit rate : 22.7 kb/s
Count of elements : 2510
Stream size : 19.7 MiB (0%)
Title : Romanian-PGS
Language : Romanian
Default : No
Forced : No

Text #32
ID : 50
Format : PGS
Muxing mode : zlib
Codec ID : S_HDMV/PGS
Codec ID/Info : Picture based subtitle format used on BDs/HD-DVDs
Duration : 2 h 1 min
Bit rate : 19.1 kb/s
Count of elements : 2522
Stream size : 16.6 MiB (0%)
Title : Thai-PGS
Language : Thai
Default : No
Forced : No

Text #33
ID : 51
Format : PGS
Muxing mode : zlib
Codec ID : S_HDMV/PGS
Codec ID/Info : Picture based subtitle format used on BDs/HD-DVDs
Duration : 1 h 20 min
Bit rate : 80 b/s
Count of elements : 4
Stream size : 47.3 KiB (0%)
Title : Thai-FORCED-PGS
Language : Thai
Default : No
Forced : No

Menu
00:00:00.000 : en:Chapter 01
00:03:28.708 : en:Chapter 02
00:07:51.679 : en:Chapter 03
00:10:07.648 : en:Chapter 04
00:13:06.702 : en:Chapter 05
00:15:06.488 : en:Chapter 06
00:18:04.541 : en:Chapter 07
00:22:58.585 : en:Chapter 08
00:25:35.325 : en:Chapter 09
00:31:40.899 : en:Chapter 10
00:33:29.215 : en:Chapter 11
00:36:32.607 : en:Chapter 12
00:38:30.808 : en:Chapter 13
00:42:05.481 : en:Chapter 14
00:45:57.963 : en:Chapter 15
00:48:31.199 : en:Chapter 16
00:52:57.382 : en:Chapter 17
00:55:14.227 : en:Chapter 18
01:00:39.594 : en:Chapter 19
01:02:56.564 : en:Chapter 20
01:05:16.621 : en:Chapter 21
01:10:50.496 : en:Chapter 22
01:13:37.204 : en:Chapter 23
01:16:34.965 : en:Chapter 24
01:18:51.935 : en:Chapter 25
01:22:48.088 : en:Chapter 26
01:24:55.340 : en:Chapter 27
01:28:25.216 : en:Chapter 28
01:33:18.551 : en:Chapter 29
01:36:08.554 : en:Chapter 30
01:41:54.358 : en:Chapter 31
01:45:23.442 : en:Chapter 32
01:48:16.490 : en:Chapter 33
01:51:43.613 : en:Chapter 34
01:54:43.668 : en:Chapter 35
01:56:51.504 : en:Chapter 36





1 个附件 售价 大小 下载 时间

Alita.Battle.Angel.2019.2160p.BluRay.REMUX.HEVC.DTS-HD.MA.TrueHD.7.1.Atmos-FGT.torrent 0 金币 133.82K 1806 次 1月前

#1楼
发帖时间:2019-07-20 23:55:16   |   回复数:4
liyouchai
隐世仙人♂
谢谢楼主分享资源
1月前 #2楼
911degrees
隐世仙人♂
非常感谢,谢谢分享
1月前 #3楼
jokingcheung
一代宗师
谢谢分享
1月前 #4楼
tanchoohoon
武林盟主
感谢楼主的无私分享
14天前 #5楼
游客组