conanlcg
超级版主

[更 早] [其他] [剧情] [BD-1080P] 机械特工/机械工 The.Russian.Specialist.2005.1080p.BluRay.x264.DD2.0-FGT 7.94GB

-->

帖子完整标题:机械特工/机械工 The.Russian.Specialist.2005.1080p.BluRay.x264.DD2.0-FGT 7.94GB




◎译  名 机械特工 / 机械工
◎片  名 The Mechanik
◎年  代 2005
◎产  地 德国 / 美国
◎类  别 剧情 / 动作 / 惊悚
◎语  言 俄语 / 英语
◎上映日期 2005-10-03
◎IMDb评分 5.7/10 from 3444 users
◎IMDb链接 http://www.imdb.com/title/tt0435696
◎豆瓣评分 5.2/10 from 361 users
◎豆瓣链接 https://movie.douban.com/subject/1485426/
◎片  长 94 分钟
◎导  演 杜夫·朗格 Dolph Lundgren
◎主  演 杜夫·朗格
      本·克劳斯 Ben Cross


◎标  签 动作 | 美国 | 美国电影 | 枪战 | 特工 | 犯罪 | 机械特工 | 电影

◎简  介

  Nick Cherenko曾是俄罗斯特种伞兵部队的一员,从阿富汗退役后当了一名修车的机械师,在一次毒品交易中他的家人被误杀身亡,尼古拉斯在复仇之后逃到美国,七年之后一名女士找到尼古拉斯,求他救出自己被绑架到俄罗斯的女儿,尼古拉斯发现原来绑架犯就是他的仇人……

Video
ID : 1
Format : AVC
Format/Info : Advanced Video Codec
Format profile : [email protected]
Format settings, CABAC : Yes
Format settings, ReFrames : 4 frames
Codec ID : V_MPEG4/ISO/AVC
Duration : 1h 30mn
Bit rate : 12.0 Mbps
Width : 1 920 pixels
Height : 1 040 pixels
Display aspect ratio : 1.85:1
Frame rate mode : Constant
Frame rate : 25.000 fps
Color space : YUV
Chroma subsampling : 4:2:0
Bit depth : 8 bits
Scan type : Progressive
Bits/(Pixel*Frame) : 0.240
Stream size : 7.38 GiB (93%)
Writing library : x264 core 72 r1217 5e9ae4c
Encoding settings : cabac=1 / ref=4 / deblock=1:0:0 / analyse=0x3:0x133 / me=umh / subme=7 / psy=1 / psy_rd=1.0:0.0 / mixed_ref=1 / me_range=16 / chroma_me=1 / trellis=1 / 8x8dct=1 / cqm=0 / deadzone=21,11 / chroma_qp_offset=-2 / threads=12 / nr=0 / decimate=1 / mbaff=0 / bframes=3 / b_pyramid=1 / b_adapt=1 / b_bias=0 / direct=1 / wpredb=1 / keyint=250 / keyint_min=25 / scenecut=40 / rc=2pass / mbtree=0 / bitrate=11991 / ratetol=1.0 / qcomp=0.60 / qpmin=10 / qpmax=51 / qpstep=4 / cplxblur=20.0 / qblur=0.5 / ip_ratio=1.40 / pb_ratio=1.30 / aq=1:1.00
Language : English
Default : Yes
Forced : No

Audio
ID : 2
Format : AC-3
Format/Info : Audio Coding 3
Mode extension : CM (complete main)
Format settings, Endianness : Big
Codec ID : A_AC3
Duration : 1h 30mn
Bit rate mode : Constant
Bit rate : 640 Kbps
Channel(s) : 2 channels
Channel positions : Front: L R
Sampling rate : 48.0 KHz
Bit depth : 16 bits
Compression mode : Lossy
Stream size : 412 MiB (5%)
Language : English
Default : Yes
Forced : No

Text
ID : 3
Format : UTF-8
Codec ID : S_TEXT/UTF8
Codec ID/Info : UTF-8 Plain Text
Language : English
Default : Yes
Forced : No





1 个附件 售价 大小 下载 时间

The.Russian.Specialist.2005.1080p.BluRay.x264.DD2.0-FGT.torrent 0 金币 80.07K 420 次 1月前

#1楼
发帖时间:2019-07-20 22:55:15   |   回复数:2
liyouchai
隐世仙人♂
谢谢楼主分享资源
1月前 #2楼
911degrees
隐世仙人♂
非常感谢,谢谢分享
1月前 #3楼
游客组