conanlcg
超级版主

[2008] [其他] [剧情] [BD-1080P] 吸血女伯爵/女伯爵巴托里 Bathory.Countess.Of.Blood.2008.1080p.BluRay.x264.DD5.1-FGT 13.95GB

-->

帖子完整标题:吸血女伯爵/女伯爵巴托里 Bathory.Countess.Of.Blood.2008.1080p.BluRay.x264.DD5.1-FGT 13.95GB




◎译  名 吸血女伯爵 / 女伯爵巴托里
◎片  名 Bathory
◎年  代 2008
◎产  地 斯洛伐克 / 捷克 / 英国 / 匈牙利 / 美国
◎类  别 剧情 / 历史 / 奇幻
◎语  言 英语
◎上映日期 2008-07-10
◎IMDb评分 5.9/10 from 3967 users
◎IMDb链接 http://www.imdb.com/title/tt0469640
◎豆瓣评分 6.6/10 from 3812 users
◎豆瓣链接 https://movie.douban.com/subject/2303817/
◎片  长 141 分钟
◎导  演 Juraj Jakubisko
◎编  剧 Juraj Jakubisko / John Paul Chapple
◎主  演 Anna Friel
      Karel Roden
      Vincent Regan
      Deana Horváthová


◎标  签 吸血鬼 | 匈牙利 | 捷克 | 欧洲电影 | 剧情 | 电影 | 2008 | Vampire

◎简  介

  天真可爱的伊丽莎白(安娜·弗莱尔 Anna Friel 饰)自幼嫁入贵族,肩负着振兴家世的的重任。适时战争不断,匈牙利的土地上未见安宁之地,伊丽莎白的夫家弗伦茨·纳达斯第(文森特·瑞根 Vincent Regan 饰)则在战争中愈加强大。弗伦茨连年征战在外,伊丽莎白则体验着孤独与无聊,她沉湎黑魔法、不伦之爱、蕾丝之情,更成为百姓谈及色变的吸血鬼女伯爵。真相在历史的长河中早已扑朔迷离,真正的伊丽莎白究竟如何无人得知……
本片根据中世纪匈牙利臭名昭著的“吸血女伯爵”伊丽莎白·巴瑟(Elizabeth Bathory)的故事改编,并荣获2009年捷克金狮奖最佳艺术指导奖。

Video
ID : 1
Format : AVC
Format/Info : Advanced Video Codec
Format profile : [email protected]
Format settings : CABAC / 4 Ref Frames
Format settings, CABAC : Yes
Format settings, Reference frames : 4 frames
Codec ID : V_MPEG4/ISO/AVC
Duration : 2 h 20 min
Bit rate : 13.8 Mb/s
Width : 1 920 pixels
Height : 870 pixels
Display aspect ratio : 2.2:1
Frame rate mode : Constant
Frame rate : 23.976 FPS
Color space : YUV
Chroma subsampling : 4:2:0
Bit depth : 8 bits
Scan type : Progressive
Bits/(Pixel*Frame) : 0.343
Stream size : 13.2 GiB (95%)
Writing library : x264 core 79 r1354M 636f98f
Encoding settings : cabac=1 / ref=4 / deblock=1:-2:-1 / analyse=0x3:0x113 / me=umh / subme=9 / psy=1 / psy_rd=1.0:0.0 / mixed_ref=1 / me_range=32 / chroma_me=1 / trellis=2 / 8x8dct=1 / cqm=0 / deadzone=21,11 / chroma_qp_offset=-2 / threads=6 / nr=0 / decimate=1 / mbaff=0 / constrained_intra=0 / bframes=5 / b_pyramid=0 / b_adapt=2 / b_bias=0 / direct=3 / wpredb=1 / wpredp=2 / keyint=250 / keyint_min=25 / scenecut=40 / rc_lookahead=0 / rc=2pass / mbtree=0 / bitrate=13757 / ratetol=1.0 / qcomp=0.60 / qpmin=10 / qpmax=51 / qpstep=4 / cplxblur=20.0 / qblur=0.5 / vbv_maxrate=50000 / vbv_bufsize=50000 / ip_ratio=1.40 / pb_ratio=1.30 / aq=1:1.00
Language : English
Default : Yes
Forced : No

Audio
ID : 2
Format : AC-3
Format/Info : Audio Coding 3
Commercial name : Dolby Digital
Codec ID : A_AC3
Duration : 2 h 20 min
Bit rate mode : Constant
Bit rate : 448 kb/s
Channel(s) : 6 channels
Channel layout : L R C LFE Ls Rs
Sampling rate : 48.0 kHz
Frame rate : 31.250 FPS (1536 SPF)
Bit depth : 16 bits
Compression mode : Lossy
Stream size : 451 MiB (3%)
Language : English
Service kind : Complete Main
Default : Yes
Forced : No

Text
ID : 3
Format : UTF-8
Codec ID : S_TEXT/UTF8
Codec ID/Info : UTF-8 Plain Text
Language : English
Default : Yes
Forced : No





1 个附件 售价 大小 下载 时间

Bathory.Countess.Of.Blood.2008.1080p.BluRay.x264.DD5.1-FGT.torrent 0 金币 70.32K 581 次 1月前

#1楼
发帖时间:2019-07-20 22:45:15   |   回复数:3
liyouchai
隐世仙人♂
谢谢楼主分享资源
1月前 #2楼
911degrees
隐世仙人♂
非常感谢,谢谢分享
1月前 #3楼
tanchoohoon
武林盟主
感谢楼主的无私分享
1月前 #4楼
游客组