conanlcg
超级版主

[2008] [其他] [喜剧] [BD-1080P] 汉克与麦克 Hank.and.Mike.2008.1080p.BluRay.x264.DD2.0-FGT 7.74GB

-->

帖子完整标题:汉克与麦克 Hank.and.Mike.2008.1080p.BluRay.x264.DD2.0-FGT 7.74GB




◎译  名 汉克与麦克
◎片  名 Hank and Mike
◎年  代 2008
◎产  地 加拿大 / 美国
◎类  别 喜剧 / 奇幻
◎语  言 英语
◎上映日期 2008-01
◎IMDb评分 6.0/10 from 1450 users
◎IMDb链接 http://www.imdb.com/title/tt0814131
◎豆瓣评分 6.9/10 from 256 users
◎豆瓣链接 https://movie.douban.com/subject/3079149/
◎片  长 USA: 86 分钟
◎导  演 Matthiew Klinck
◎编  剧 Paolo Mancini / Thomas Michael
◎主  演 Thomas Michael
      Paolo Mancini
      Chris Klein
      Joe Mantegna
      Maggie Castle


◎标  签 喜剧 | 美国 | 我看过的电影 | 美国电影 | 我看过的英语电影 | 2008 | 加拿大 | 我的标签

◎简  介

  汉克和麦克是一对好朋友,他们的工作就是在复活节的时候扮成兔子,跟那些在圣诞节时扮圣诞老人的差不多。不过这两个脏话连篇的兔子扮演者,某天被意外解雇了。为了谋生,他们打算做些零工来养活自己,可惜事事不顺。两人这才发现,也许自己最大的才能就是扮兔子给人们送去欢笑……

Video
ID : 1
Format : AVC
Format/Info : Advanced Video Codec
Format profile : [email protected]
Format settings : CABAC / 4 Ref Frames
Format settings, CABAC : Yes
Format settings, Reference frames : 4 frames
Codec ID : V_MPEG4/ISO/AVC
Duration : 1 h 22 min
Bit rate : 13.0 Mb/s
Width : 1 920 pixels
Height : 1 080 pixels
Display aspect ratio : 16:9
Frame rate mode : Constant
Frame rate : 25.000 FPS
Color space : YUV
Chroma subsampling : 4:2:0
Bit depth : 8 bits
Scan type : Progressive
Bits/(Pixel*Frame) : 0.251
Stream size : 7.36 GiB (95%)
Writing library : x264 core 88 r1462 7fcffde
Encoding settings : cabac=1 / ref=4 / deblock=1:0:0 / analyse=0x3:0x133 / me=umh / subme=7 / psy=1 / psy_rd=1.00:0.00 / mixed_ref=1 / me_range=16 / chroma_me=1 / trellis=1 / 8x8dct=1 / cqm=0 / deadzone=21,11 / fast_pskip=0 / chroma_qp_offset=-2 / threads=6 / sliced_threads=0 / nr=0 / decimate=1 / mbaff=0 / constrained_intra=0 / bframes=3 / b_pyramid=2 / b_adapt=1 / b_bias=0 / direct=1 / wpredb=1 / wpredp=2 / keyint=250 / keyint_min=25 / scenecut=40 / intra_refresh=0 / rc_lookahead=40 / rc=2pass / mbtree=1 / bitrate=13019 / ratetol=1.0 / qcomp=0.60 / qpmin=10 / qpmax=51 / qpstep=4 / cplxblur=20.0 / qblur=0.5 / ip_ratio=1.40 / aq=1:1.00
Language : English
Default : Yes
Forced : No

Audio
ID : 2
Format : AC-3
Format/Info : Audio Coding 3
Commercial name : Dolby Digital
Codec ID : A_AC3
Duration : 1 h 22 min
Bit rate mode : Constant
Bit rate : 384 kb/s
Channel(s) : 2 channels
Channel layout : L R
Sampling rate : 48.0 kHz
Frame rate : 31.250 FPS (1536 SPF)
Bit depth : 16 bits
Compression mode : Lossy
Stream size : 227 MiB (3%)
Language : English
Service kind : Complete Main
Default : Yes
Forced : No





1 个附件 售价 大小 下载 时间

Hank.and.Mike.2008.1080p.BluRay.x264.DD2.0-FGT.torrent 0 金币 39.20K 231 次 1月前

#1楼
发帖时间:2019-07-20 22:34:40   |   回复数:4
liyouchai
隐世仙人♂
谢谢楼主分享资源
1月前 #2楼
911degrees
隐世仙人♂
非常感谢,谢谢分享
1月前 #3楼
布欧00
武林高手
谢谢楼主的分享啊
28天前 #4楼
布欧00
武林高手
谢谢楼主的分享啊
28天前 #5楼
游客组