conanlcg
超级版主

[2019] [其他] [恐怖] [BD-Remux] 地面之洞/婴魂不散 The.Hole.in.the.Ground.2019.1080p.BluRay.REMUX.AVC.DTS-HD.MA.5.1-FGT 2

-->

帖子完整标题:地面之洞/婴魂不散 The.Hole.in.the.Ground.2019.1080p.BluRay.REMUX.AVC.DTS-HD.MA.5.1-FGT 23.96GB




◎译  名 地面之洞 / 婴魂不散
◎片  名 The Hole in the Ground
◎年  代 2019
◎产  地 爱尔兰
◎类  别 恐怖
◎语  言 英语
◎上映日期 2019-01-25(圣丹斯电影节) / 2019-03-01(爱尔兰)
◎IMDb评分 5.7/10 from 6103 users
◎IMDb链接 http://www.imdb.com/title/tt6198946
◎豆瓣评分 5.2/10 from 945 users
◎豆瓣链接 https://movie.douban.com/subject/27197468/
◎片  长 90分钟
◎导  演 Lee Cronin
◎编  剧 Lee Cronin / Stephen Shields
◎主  演 莎娜·凯斯雷克 Seána Kerslake
      詹姆士·奎因·马奇 James Quinn Markey
      西蒙妮·柯比 Simone Kirby
      史蒂夫·沃尔 Steve Wall
      欧文·马肯 Eoin Macken
      莎拉·汉利 Sarah Hanly
      詹姆斯·卡沙莫 James Cosmo
      卡蒂·奥廷宁 Kati Outinen
      贝内特·安德鲁 Bennett Andrew
      戴维·克罗利 David Crowley


◎标  签 恐怖 | 惊悚 | 灵异 | 爱尔兰 | 2019 | 电影 | 美国 | 儿童

◎简  介

  一晚,儿子离奇失踪,妈妈遍寻不著连忙报警,儿子却突然现身「我哪都没去啊!」;那天起,妈妈需要靠著药物治疗病症,却发现熟悉的儿子渐渐陌生,彷若被鬼魅控制取代…

Video
ID : 1
Format : AVC
Format/Info : Advanced Video Codec
Format profile : [email protected]
Format settings : CABAC / 4 Ref Frames
Format settings, CABAC : Yes
Format settings, Reference frames : 4 frames
Codec ID : V_MPEG4/ISO/AVC
Duration : 1 h 30 min
Bit rate mode : Variable
Bit rate : 32.5 Mb/s
Maximum bit rate : 36.0 Mb/s
Width : 1 920 pixels
Height : 1 080 pixels
Display aspect ratio : 16:9
Frame rate mode : Constant
Frame rate : 23.976 (24000/1001) FPS
Color space : YUV
Chroma subsampling : 4:2:0
Bit depth : 8 bits
Scan type : Progressive
Bits/(Pixel*Frame) : 0.654
Stream size : 20.5 GiB (86%)
Title : The.Hole.in.the.Ground.2019.1080p.BluRay.REMUX.AVC.DTS-HD.MA.5.1-FGT
Language : English
Default : No
Forced : No

Audio #1
ID : 2
Format : DTS XLL
Format/Info : Digital Theater Systems
Commercial name : DTS-HD Master Audio
Codec ID : A_DTS
Duration : 1 h 30 min
Bit rate mode : Variable
Bit rate : 3 187 kb/s
Channel(s) : 6 channels
Channel layout : C L R Ls Rs LFE
Sampling rate : 48.0 kHz
Frame rate : 93.750 FPS (512 SPF)
Bit depth : 24 bits
Compression mode : Lossless
Stream size : 2.01 GiB (8%)
Title : The.Hole.in.the.Ground.2019.1080p.BluRay.REMUX.AVC.DTS-HD.MA.5.1-FGT
Language : English
Default : Yes
Forced : No

Audio #2
ID : 3
Format : PCM
Format settings : Little / Signed
Codec ID : A_PCM/INT/LIT
Duration : 1 h 30 min
Bit rate mode : Constant
Bit rate : 2 304 kb/s
Channel(s) : 2 channels
Sampling rate : 48.0 kHz
Frame rate : 30.000 FPS (1600 SPF)
Bit depth : 24 bits
Stream size : 1.45 GiB (6%)
Title : The.Hole.in.the.Ground.2019.1080p.BluRay.REMUX.AVC.DTS-HD.MA.5.1-FGT
Language : English
Default : No
Forced : No

Text
ID : 4
Format : PGS
Muxing mode : zlib
Codec ID : S_HDMV/PGS
Codec ID/Info : Picture based subtitle format used on BDs/HD-DVDs
Duration : 1 h 26 min
Bit rate : 26.2 kb/s
Count of elements : 1350
Stream size : 16.2 MiB (0%)
Title : English-PGS
Language : English
Default : Yes
Forced : No

Menu
00:00:00.000 : en:Chapter 00
00:06:00.943 : en:Chapter 01
00:13:43.280 : en:Chapter 02
00:22:26.636 : en:Chapter 03
00:31:40.231 : en:Chapter 04
00:39:55.184 : en:Chapter 05
00:48:10.387 : en:Chapter 06
00:55:02.966 : en:Chapter 07
01:02:13.521 : en:Chapter 08
01:09:18.946 : en:Chapter 09
01:16:29.960 : en:Chapter 10
01:22:10.216 : en:Chapter 11
01:30:06.234 : en:Chapter 12





1 个附件 售价 大小 下载 时间

The.Hole.in.the.Ground.2019.1080p.BluRay.REMUX.AVC.DTS-HD.MA.5.1-FGT.torrent 0 金币 60.46K 966 次 4月前

#1楼
发帖时间:2019-07-20 13:15:30   |   回复数:3
blue23
隐世仙人♂
感谢楼主分享
4月前 #2楼
liyouchai
隐世仙人♂
谢谢楼主分享资源
4月前 #3楼
911degrees
隐世仙人♂
非常感谢,谢谢分享
4月前 #4楼
游客组