conanlcg
超级版主

[更 早] [其他] [恐怖] [BD-1080P] 神出鬼没吃人鳄 Dark.Age.1987.1080p.BluRay.x264.DD2.0-FGT 7.42GB

-->

帖子完整标题:神出鬼没吃人鳄 Dark.Age.1987.1080p.BluRay.x264.DD2.0-FGT 7.42GB




◎译  名 神出鬼没吃人鳄
◎片  名 Dark Age
◎年  代 1987
◎产  地 澳大利亚
◎类  别 恐怖
◎语  言 英语
◎上映日期 1987-05-21(日本) / 1987-10(西德) / 1988-06-29(美国)
◎IMDb评分 6.0/10 from 753 users
◎IMDb链接 http://www.imdb.com/title/tt0092830
◎豆瓣评分 0/10 from 0 users
◎豆瓣链接 https://movie.douban.com/subject/1302107/
◎片  长 91 分钟
◎导  演 Arch Nicholson
◎编  剧 Grahame Webb (I) / Sonia Borg / Stephen Cross (III)

◎标  签 澳大利亚 | 恐怖 | 驚悚 | 澳洲 | 悬疑/惊悚/恐怖 | 80

◎简  介

  暂无相关剧情介绍

Video
ID : 1
Format : AVC
Format/Info : Advanced Video Codec
Format profile : [email protected]
Format settings, CABAC : Yes
Format settings, ReFrames : 4 frames
Codec ID : V_MPEG4/ISO/AVC
Duration : 1 h 30 min
Bit rate : 11.5 Mb/s
Width : 1 920 pixels
Height : 1 080 pixels
Display aspect ratio : 16:9
Frame rate mode : Constant
Frame rate : 23.976 (24000/1001) FPS
Color space : YUV
Chroma subsampling : 4:2:0
Bit depth : 8 bits
Scan type : Progressive
Bits/(Pixel*Frame) : 0.231
Stream size : 7.03 GiB (95%)
Title : Dark.Age.1987.1080p.BluRay.x264.DD2.0-FGT
Writing library : x264 core 148 r2795 aaa9aa8
Encoding settings : cabac=1 / ref=4 / deblock=1:-2:-2 / analyse=0x3:0x113 / me=umh / subme=9 / psy=1 / psy_rd=1.00:0.15 / mixed_ref=1 / me_range=16 / chroma_me=1 / trellis=2 / 8x8dct=1 / cqm=0 / deadzone=21,11 / fast_pskip=1 / chroma_qp_offset=-3 / threads=24 / lookahead_threads=3 / sliced_threads=0 / nr=0 / decimate=1 / interlaced=0 / bluray_compat=0 / constrained_intra=0 / bframes=3 / b_pyramid=2 / b_adapt=2 / b_bias=0 / direct=3 / weightb=1 / open_gop=0 / weightp=2 / keyint=250 / keyint_min=25 / scenecut=40 / intra_refresh=0 / rc_lookahead=50 / rc=abr / mbtree=1 / bitrate=11500 / ratetol=1.0 / qcomp=0.60 / qpmin=0 / qpmax=69 / qpstep=4 / vbv_maxrate=31250 / vbv_bufsize=31250 / nal_hrd=none / filler=0 / ip_ratio=1.40 / aq=1:1.00
Language : English
Default : Yes
Forced : No

Audio
ID : 2
Format : AC-3
Format/Info : Audio Coding 3
Format settings, Endianness : Big
Codec ID : A_AC3
Duration : 1 h 30 min
Bit rate mode : Constant
Bit rate : 384 kb/s
Channel(s) : 2 channels
Channel positions : Front: L R
Sampling rate : 48.0 kHz
Frame rate : 31.250 FPS (1536 spf)
Bit depth : 16 bits
Compression mode : Lossy
Stream size : 249 MiB (3%)
Title : Dark.Age.1987.1080p.BluRay.x264.DD2.0-FGT
Language : English
Service kind : Complete Main
Default : Yes
Forced : No

Text
ID : 3
Format : UTF-8
Codec ID : S_TEXT/UTF8
Codec ID/Info : UTF-8 Plain Text
Language : English
Default : Yes
Forced : No

Menu
00:00:00.000 : en:Chapter 01
00:07:01.421 : en:Chapter 02
00:13:47.451 : en:Chapter 03
00:19:02.891 : en:Chapter 04
00:26:50.400 : en:Chapter 05
00:33:02.730 : en:Chapter 06
00:37:52.687 : en:Chapter 07
00:43:12.923 : en:Chapter 08
00:48:28.780 : en:Chapter 09
00:51:50.023 : en:Chapter 10
00:58:38.765 : en:Chapter 11
01:04:37.957 : en:Chapter 12
01:08:50.918 : en:Chapter 13
01:13:28.779 : en:Chapter 14
01:17:51.500 : en:Chapter 15
01:21:49.195 : en:Chapter 16
01:27:34.499 : en:Chapter 17





1 个附件 售价 大小 下载 时间

Dark.Age.1987.1080p.BluRay.x264.DD2.0-FGT.torrent 0 金币 74.74K 406 次 1月前

#1楼
发帖时间:2019-07-20 11:57:17   |   回复数:3
blue23
隐世仙人♂
感谢楼主分享
1月前 #2楼
liyouchai
隐世仙人♂
谢谢楼主分享资源
1月前 #3楼
911degrees
隐世仙人♂
非常感谢,谢谢分享
1月前 #4楼
游客组