conanlcg
超级版主

[更 早] [其他] [剧情] [BD-1080P] 铁甲雄狮 Rolling.Vengeance.1987.1080p.BluRay.x264-SADPANDA 6.55GB

-->

帖子完整标题:铁甲雄狮 Rolling.Vengeance.1987.1080p.BluRay.x264-SADPANDA 6.55GB




◎译  名 铁甲雄狮
◎片  名 Rolling Vengeance
◎年  代 1987
◎产  地 加拿大
◎类  别 剧情 / 动作
◎语  言 英语
◎上映日期 1987
◎IMDb评分 5.6/10 from 453 users
◎IMDb链接 http://www.imdb.com/title/tt0093876
◎豆瓣评分 0/10 from 0 users
◎豆瓣链接 https://movie.douban.com/subject/5047310/
◎片  长 90 分钟
◎导  演 Steven Hilliard Stern
◎编  剧 Michael Thomas Montgomery
◎主  演 唐·迈克尔·保罗 Don Michael Paul
      Lawrence Dane
      尼德·巴蒂 Ned Beatty
      莉莎·霍华德 Lisa Howard


◎标  签 记号

◎简  介

  一名男子正准备杀死一群敌对分子,他们在一辆被毁的汽车上杀死了他无辜的母亲和他们孩子的母亲,并被推倒在灌木丛中,现在他想要复仇,他建造了一辆巨大的怪物卡车,也被称为“滚动复仇”

Video
ID : 1
Format : AVC
Format/Info : Advanced Video Codec
Format profile : [email protected]
Format settings : CABAC / 4 Ref Frames
Format settings, CABAC : Yes
Format settings, RefFrames : 4 frames
Codec ID : V_MPEG4/ISO/AVC
Duration : 1 h 31 min
Bit rate : 9 885 kb/s
Width : 1 920 pixels
Height : 1 040 pixels
Display aspect ratio : 1.85:1
Frame rate mode : Constant
Frame rate : 23.976 (24000/1001) FPS
Color space : YUV
Chroma subsampling : 4:2:0
Bit depth : 8 bits
Scan type : Progressive
Bits/(Pixel*Frame) : 0.206
Stream size : 6.35 GiB (97%)
Writing library : x264 core 155 r2901 7d0ff22
Encoding settings : cabac=1 / ref=4 / deblock=1:-3:-3 / analyse=0x3:0x113 / me=umh / subme=8 / psy=1 / psy_rd=1.00:0.25 / mixed_ref=1 / me_range=24 / chroma_me=1 / trellis=1 / 8x8dct=1 / cqm=0 / deadzone=21,11 / fast_pskip=1 / chroma_qp_offset=-4 / threads=30 / lookahead_threads=5 / sliced_threads=0 / nr=0 / decimate=1 / interlaced=0 / bluray_compat=0 / constrained_intra=0 / bframes=3 / b_pyramid=2 / b_adapt=1 / b_bias=0 / direct=3 / weightb=1 / open_gop=0 / weightp=2 / keyint=240 / keyint_min=24 / scenecut=40 / intra_refresh=0 / rc_lookahead=50 / rc=2pass / mbtree=1 / bitrate=9885 / ratetol=1.0 / qcomp=0.60 / qpmin=0 / qpmax=69 / qpstep=4 / cplxblur=20.0 / qblur=0.5 / ip_ratio=1.40 / aq=1:0.75
Default : Yes
Forced : No

Audio
ID : 2
Format : FLAC
Format/Info : Free Lossless Audio Codec
Codec ID : A_FLAC
Duration : 1 h 31 min
Bit rate mode : Variable
Bit rate : 312 kb/s
Channel(s) : 2 channels
Channel positions : Front: L R
Sampling rate : 48.0 kHz
Frame rate : 11.719 FPS (4096 SPF)
Bit depth : 16 bits
Stream size : 205 MiB (3%)
Writing library : libFLAC 1.2.1 (UTC 2007-09-17)
Language : English
Default : Yes
Forced : No

Menu
00:00:00.000 : en:00:00:00.000
00:12:00.762 : en:00:12:00.762
00:23:00.671 : en:00:23:00.671
00:34:48.837 : en:00:34:48.837
00:44:57.111 : en:00:44:57.111
00:58:52.863 : en:00:58:52.863
01:11:54.810 : en:01:11:54.810
01:19:12.915 : en:01:19:12.915





1 个附件 售价 大小 下载 时间

Rolling.Vengeance.1987.1080p.BluRay.x264-SADPANDA.torrent 0 金币 131.57K 224 次 4月前

#1楼
发帖时间:2019-07-20 10:56:36   |   回复数:2
911degrees
隐世仙人♂
非常感谢,谢谢分享
4月前 #2楼
liyouchai
隐世仙人♂
谢谢楼主分享资源
4月前 #3楼
游客组