conanlcg
超级版主

[更 早] [其他] [恐怖] [BD-1080P] 噩梦缠身 Seizure.1974.1080p.BluRay.x264-GUACAMOLE 6.56GB

-->

帖子完整标题:噩梦缠身 Seizure.1974.1080p.BluRay.x264-GUACAMOLE 6.56GB




◎译  名 噩梦缠身
◎片  名 Seizure
◎年  代 1974
◎产  地 加拿大 / 美国
◎类  别 恐怖
◎语  言 英语
◎IMDb评分 4.8/10 from 648 users
◎IMDb链接 http://www.imdb.com/title/tt0072136
◎豆瓣评分 0/10 from 0 users
◎豆瓣链接 https://movie.douban.com/subject/2159039/
◎片  长 UK: 98 分钟
◎导  演 奥利佛·斯通 Oliver Stone
◎编  剧 爱德华·曼 Edward Mann / 奥利佛·斯通 Oliver Stone
◎主  演 Jonathan Frid
      玛蒂妮·贝丝维克 Martine Beswick
      Joseph Sirola
      克里斯蒂娜·皮克勒斯 Christina Pickles
      赫夫·维勒查泽 Hervé Villechaize
      Anne Meacham
      Roger De Koven
      特洛伊·多纳胡 Troy Donahue
      玛丽·沃伦诺夫 Mary Woronov
      理查德·考克斯 Richard Cox
      奥利佛·斯通 Oliver Stone


◎标  签 恐怖 | 惊悚 | 奥利佛·斯通 | 处女作 | Oliver_Stone | OliverStone | M美国 | D奥利佛·斯通

◎简  介

  Oliver Stone's first film was this unpleasant but fascinating and clever thriller, which blurs the line between dreams and reality in a way that would later become very popular in the "Nightmare On Elm Street" films. The film is technically unpolished, with a crummy look and often inept editing. But it is also a disturbing experience that offers no easy redemptions, and as such it is recommended especially to people who enjoy films like "Alice, Sweet Alice". (**)

Video
ID : 1
Format : AVC
Format/Info : Advanced Video Codec
Format profile : [email protected]
Format settings, CABAC : Yes
Format settings, ReFrames : 4 frames
Codec ID : V_MPEG4/ISO/AVC
Duration : 1h 34mn
Bit rate : 8 440 Kbps
Width : 1 920 pixels
Height : 1 080 pixels
Display aspect ratio : 16:9
Frame rate mode : Constant
Frame rate : 24.000 fps
Color space : YUV
Chroma subsampling : 4:2:0
Bit depth : 8 bits
Scan type : Progressive
Bits/(Pixel*Frame) : 0.170
Stream size : 5.56 GiB (85%)
Writing library : x264 core 150 r2833 df79067
Encoding settings : cabac=1 / ref=4 / deblock=1:0:0 / analyse=0x3:0x113 / me=umh / subme=8 / psy=1 / psy_rd=1.00:0.00 / mixed_ref=1 / me_range=16 / chroma_me=1 / trellis=2 / 8x8dct=1 / cqm=0 / deadzone=21,11 / fast_pskip=0 / chroma_qp_offset=-2 / threads=12 / lookahead_threads=2 / sliced_threads=0 / nr=0 / decimate=1 / interlaced=0 / bluray_compat=0 / constrained_intra=0 / bframes=3 / b_pyramid=2 / b_adapt=1 / b_bias=0 / direct=1 / weightb=1 / open_gop=0 / weightp=2 / keyint=250 / keyint_min=24 / scenecut=40 / intra_refresh=0 / rc_lookahead=50 / rc=2pass / mbtree=1 / bitrate=8440 / ratetol=1.0 / qcomp=0.60 / qpmin=0 / qpmax=69 / qpstep=4 / cplxblur=20.0 / qblur=0.5 / ip_ratio=1.40 / aq=1:1.00
Default : Yes
Forced : No

Audio
ID : 2
Format : DTS
Format/Info : Digital Theater Systems
Mode : 16
Format settings, Endianness : Big
Codec ID : A_DTS
Duration : 1h 34mn
Bit rate mode : Constant
Bit rate : 1 509 Kbps
Channel(s) : 2 channels
Channel positions : Front: L R
Sampling rate : 48.0 KHz
Frame rate : 93.750 fps (512 spf)
Bit depth : 24 bits
Compression mode : Lossy
Stream size : 1 019 MiB (15%)
Language : English
Default : Yes
Forced : No





1 个附件 售价 大小 下载 时间

Seizure.1974.1080p.BluRay.x264-GUACAMOLE.torrent 0 金币 131.73K 238 次 1月前

#1楼
发帖时间:2019-07-20 10:54:42   |   回复数:2
911degrees
隐世仙人♂
非常感谢,谢谢分享
1月前 #2楼
liyouchai
隐世仙人♂
谢谢楼主分享资源
1月前 #3楼
游客组