conanlcg
超级版主

[2008] [其他] [剧情] [BD-1080P] 四骑士/第4战队 The.Four.Horsemen.2008.1080p.BluRay.x264-Japhson 6.56GB

-->

帖子完整标题:四骑士/第4战队 The.Four.Horsemen.2008.1080p.BluRay.x264-Japhson 6.56GB




◎译  名 四骑士 / 第4战队
◎片  名 The Four Horsemen
◎年  代 2008
◎产  地 加拿大
◎类  别 剧情 / 动作
◎语  言 英语 / 法语
◎上映日期 2008-03-18
◎IMDb评分 3.3/10 from 403 users
◎IMDb链接 http://www.imdb.com/title/tt1196630
◎豆瓣评分 0/10 from 0 users
◎豆瓣链接 https://movie.douban.com/subject/3015392/
◎片  长 118分钟
◎导  演 Sidney J. Furie
◎编  剧 Greg Mellott
◎主  演 Joanna Douglas
      Zan Calabretta
      Nick Abraham


◎标  签 美国电影 | AVI | 章子怡 | 战争中的温情 | 战争 | 2008

◎简  介

  118 mins
四个高中足球明星,应征入伍成为了海军陆战队员,并加入到了对伊拉克的战争当中。没过多久,他们中一人战死,另外一人也受了伤。他们回国之后才发现,自己已经无法融入到现今的社会当中。他们脑海里充斥了在伊拉克发生的那些情景,这种情况愈演愈烈,使他们到了崩溃的边缘。

Video
ID : 1
Format : AVC
Format/Info : Advanced Video Codec
Format profile : [email protected]
Format settings, CABAC : Yes
Format settings, ReFrames : 4 frames
Codec ID : V_MPEG4/ISO/AVC
Duration : 1h 34mn
Bit rate : 9 143 Kbps
Width : 1 920 pixels
Height : 1 080 pixels
Display aspect ratio : 16:9
Frame rate mode : Constant
Frame rate : 23.976 (24000/1001) fps
Color space : YUV
Chroma subsampling : 4:2:0
Bit depth : 8 bits
Scan type : Progressive
Bits/(Pixel*Frame) : 0.184
Stream size : 5.92 GiB (90%)
Writing library : x264 core 105 r1732 2b04482
Encoding settings : cabac=1 / ref=4 / deblock=1:-1:-1 / analyse=0x3:0x113 / me=umh / subme=7 / psy=1 / psy_rd=1.00:0.00 / mixed_ref=1 / me_range=16 / chroma_me=1 / trellis=1 / 8x8dct=1 / cqm=0 / deadzone=21,11 / fast_pskip=1 / chroma_qp_offset=-2 / threads=12 / sliced_threads=0 / nr=0 / decimate=1 / interlaced=0 / constrained_intra=0 / bframes=3 / b_pyramid=2 / b_adapt=2 / b_bias=0 / direct=3 / weightb=1 / open_gop=0 / weightp=2 / keyint=250 / keyint_min=23 / scenecut=40 / intra_refresh=0 / rc_lookahead=40 / rc=2pass / mbtree=1 / bitrate=9143 / ratetol=1.0 / qcomp=0.60 / qpmin=10 / qpmax=51 / qpstep=4 / cplxblur=20.0 / qblur=0.5 / vbv_maxrate=50000 / vbv_bufsize=50000 / ip_ratio=1.40 / aq=1:1.00 / nal_hrd=none
Language : English
Default : Yes
Forced : Yes

Audio
ID : 2
Format : DTS
Format/Info : Digital Theater Systems
Mode : 16
Format settings, Endianness : Big
Codec ID : A_DTS
Duration : 1h 34mn
Bit rate mode : Constant
Bit rate : 768 Kbps
Channel(s) : 6 channels
Channel positions : Front: L C R, Side: L R, LFE
Sampling rate : 48.0 KHz
Frame rate : 93.750 fps (512 spf)
Bit depth : 16 bits
Compression mode : Lossy
Stream size : 520 MiB (8%)
Language : English
Default : Yes
Forced : Yes





1 个附件 售价 大小 下载 时间

The.Four.Horsemen.2008.1080p.BluRay.x264-Japhson.torrent 0 金币 66.12K 217 次 1月前

#1楼
发帖时间:2019-07-20 10:42:30   |   回复数:3
911degrees
隐世仙人♂
非常感谢,谢谢分享
1月前 #2楼
tanchoohoon
武林盟主
感谢楼主的无私分享
1月前 #3楼
liyouchai
隐世仙人♂
谢谢楼主分享资源
1月前 #4楼
游客组