conanlcg
超级版主

[2016] [其他] [剧情] [BD-1080P] 约纳坦/老爸的祕密情人 Jonathan.2016.GERMAN.1080p.BluRay.x264-HANDJOB 8.34GB

-->

帖子完整标题:约纳坦/老爸的祕密情人 Jonathan.2016.GERMAN.1080p.BluRay.x264-HANDJOB 8.34GB




◎译  名 约纳坦 / 老爸的祕密情人
◎片  名 Jonathan
◎年  代 2016
◎产  地 德国
◎类  别 剧情 / 同性
◎语  言 德语
◎上映日期 2016-02-16(柏林电影节)
◎IMDb评分 6.2/10 from 744 users
◎IMDb链接 http://www.imdb.com/title/tt5350358
◎豆瓣评分 6.6/10 from 196 users
◎豆瓣链接 https://movie.douban.com/subject/26710270/
◎片  长 99分钟
◎导  演 Piotr J. Lewandowski
◎编  剧 Piotr J. Lewandowski
◎主  演 杰尼斯·纽沃纳 Jannis Niew?hner
      安德列·汉尼克 André Hennicke
      茱莉亚·克斯奇兹 Julia Koschitz
      Thomas Sarbacher
      Barbara Auer


◎标  签 德国 | 同性 | LGBT | 2016 | 柏林电影节 | 同志 | 剧情 | 德国电影

◎简  介

  A graduate of the Offenbach College of Design, Piotr J. Lewandowski has made his directorial debut with JONATHAN (working-title) based on an award-winning screenplay. The moving drama about family secrets and the obstacles to achieving one’s own happiness features Jannis Niew?hner, one of this year’s European Shooting Stars, in the title role of the 24-year-old Jonathan. The young man is caring unstintingly for his terminally-ill father Burghardt, but then sees his life in a new light after falling in love with Anka, who has come to nurse his father. However, the story takes another twist when Ron, Burghardt’s long-lost friend from his youth, re-appears — and a well-kept family secret is uncovered....

Video
ID : 3
Format : AVC
Format/Info : Advanced Video Codec
Format profile : [email protected]
Format settings : CABAC / 5 Ref Frames
Format settings, CABAC : Yes
Format settings, Reference frames : 5 frames
Codec ID : V_MPEG4/ISO/AVC
Duration : 1 h 39 min
Bit rate : 11.4 Mb/s
Width : 1 920 pixels
Height : 804 pixels
Display aspect ratio : 2.40:1
Frame rate mode : Constant
Frame rate : 24.000 FPS
Color space : YUV
Chroma subsampling : 4:2:0
Bit depth : 8 bits
Scan type : Progressive
Bits/(Pixel*Frame) : 0.308
Stream size : 7.90 GiB (95%)
Writing library : x264 core 157 r2935 545de2f
Encoding settings : cabac=1 / ref=5 / deblock=1:-3:-3 / analyse=0x3:0x133 / me=umh / subme=10 / psy=1 / psy_rd=1.00:0.00 / mixed_ref=1 / me_range=32 / chroma_me=1 / trellis=2 / 8x8dct=1 / cqm=0 / deadzone=21,11 / fast_pskip=0 / chroma_qp_offset=-2 / threads=25 / lookahead_threads=6 / sliced_threads=0 / nr=0 / decimate=0 / interlaced=0 / bluray_compat=0 / constrained_intra=0 / bframes=16 / b_pyramid=2 / b_adapt=2 / b_bias=0 / direct=3 / weightb=1 / open_gop=0 / weightp=2 / keyint=240 / keyint_min=24 / scenecut=40 / intra_refresh=0 / rc_lookahead=60 / rc=crf / mbtree=0 / crf=16.0 / qcomp=0.60 / qpmin=0 / qpmax=69 / qpstep=4 / vbv_maxrate=62500 / vbv_bufsize=78125 / crf_max=0.0 / nal_hrd=none / filler=0 / ip_ratio=1.40 / pb_ratio=1.30 / aq=2:1.00
Default : Yes
Forced : No
Color range : Limited
Color primaries : BT.709
Transfer characteristics : BT.709
Matrix coefficients : BT.709

Audio
ID : 2
Format : AC-3
Format/Info : Audio Coding 3
Commercial name : Dolby Digital
Codec ID : A_AC3
Duration : 1 h 39 min
Bit rate mode : Constant
Bit rate : 640 kb/s
Channel(s) : 6 channels
Channel layout : L R C LFE Ls Rs
Sampling rate : 48.0 kHz
Frame rate : 31.250 FPS (1536 SPF)
Bit depth : 16 bits
Compression mode : Lossy
Stream size : 454 MiB (5%)
Language : German
Service kind : Complete Main
Default : Yes
Forced : No

Text
ID : 1
Format : UTF-8
Codec ID : S_TEXT/UTF8
Codec ID/Info : UTF-8 Plain Text
Duration : 1 h 29 min
Bit rate : 22 b/s
Count of elements : 537
Stream size : 14.8 KiB (0%)
Language : English
Default : Yes
Forced : No

Menu
00:00:00.000 : en:Chapter 1
00:10:30.000 : en:Chapter 2
00:21:51.000 : en:Chapter 3
00:38:11.000 : en:Chapter 4
00:50:28.000 : en:Chapter 5
01:03:26.000 : en:Chapter 6
01:15:08.000 : en:Chapter 7
01:27:00.000 : en:Chapter 8
01:35:54.000 : en:Chapter 9





1 个附件 售价 大小 下载 时间

Jonathan.2016.GERMAN.1080p.BluRay.x264-HANDJOB.torrent 0 金币 42.22K 371 次 4月前

#1楼
发帖时间:2019-07-20 10:14:30   |   回复数:2
911degrees
隐世仙人♂
非常感谢,谢谢分享
4月前 #2楼
liyouchai
隐世仙人♂
谢谢楼主分享资源
4月前 #3楼
游客组