conanlcg
超级版主

[更 早] [欧美] [剧情] [BD-1080P] 血海仇 Dead.Reckoning.1947.1080p.BluRay.x264-SiNNERS 7.94GB

-->

帖子完整标题:血海仇 Dead.Reckoning.1947.1080p.BluRay.x264-SiNNERS 7.94GB




◎译  名 血海仇
◎片  名 Dead Reckoning
◎年  代 1947
◎产  地 美国
◎类  别 剧情 / 悬疑 / 惊悚 / 黑色电影
◎语  言 英语
◎上映日期 1947-01-16
◎IMDb评分 7.1/10 from 5892 users
◎IMDb链接 http://www.imdb.com/title/tt0039305
◎豆瓣评分 6.3/10 from 59 users
◎豆瓣链接 https://movie.douban.com/subject/1295114/
◎片  长 100 分钟
◎导  演 约翰 克伦威尔 (John Cromwell)
◎编  剧 艾伦·里弗金 Allen Rivkin / 杰拉尔德·德雷森·亚当斯 Gerald Drayson Adams / 奥利弗·H·P·加勒特 Oliver H.P. Garrett
◎主  演 亨弗莱·鲍嘉 Humphrey Bogart
      丽莎贝斯·斯科特 Lizabeth Scott
      莫里斯·卡诺夫斯基 Morris Carnovsky
      Charles Cane
      William Prince


◎标  签 黑色电影 | Film-Noir | 1940s | 美国 | 1947 | 亨弗莱·鲍嘉 | 美国电影 | 悬疑

◎简  介

  Rip Murdock and Johnny Darke are en route to Washington when Johnny disappears and then turns up dead. Rip learns that Johnny had been accused of murder and sets out to find out what he can. He falls in love with Coral whose husband Johnny is supposed to have killed.

Video
ID : 1
Format : AVC
Format/Info : Advanced Video Codec
Format profile : [email protected]
Format settings : CABAC / 5 Ref Frames
Format settings, CABAC : Yes
Format settings, RefFrames : 5 frames
Codec ID : V_MPEG4/ISO/AVC
Duration : 1 h 40 min
Bit rate : 9 804 kb/s
Width : 1 488 pixels
Height : 1 080 pixels
Display aspect ratio : 1.378
Frame rate mode : Constant
Frame rate : 23.976 (24000/1001) FPS
Color space : YUV
Chroma subsampling : 4:2:0
Bit depth : 8 bits
Scan type : Progressive
Bits/(Pixel*Frame) : 0.254
Stream size : 6.88 GiB (87%)
Writing library : x264 core 155 r2901 7d0ff22
Encoding settings : cabac=1 / ref=5 / deblock=1:-3:-3 / analyse=0x3:0x113 / me=umh / subme=8 / psy=1 / psy_rd=1.00:0.00 / mixed_ref=1 / me_range=16 / chroma_me=1 / trellis=2 / 8x8dct=1 / cqm=0 / deadzone=21,11 / fast_pskip=0 / chroma_qp_offset=-2 / threads=18 / lookahead_threads=3 / sliced_threads=0 / nr=0 / decimate=1 / interlaced=0 / bluray_compat=0 / constrained_intra=0 / bframes=3 / b_pyramid=2 / b_adapt=1 / b_bias=0 / direct=1 / weightb=1 / open_gop=0 / weightp=2 / keyint=250 / keyint_min=23 / scenecut=40 / intra_refresh=0 / rc_lookahead=40 / rc=2pass / mbtree=1 / bitrate=9804 / ratetol=1.0 / qcomp=0.60 / qpmin=0 / qpmax=69 / qpstep=4 / cplxblur=20.0 / qblur=0.5 / ip_ratio=1.40 / aq=1:1.00
Language : English
Default : Yes
Forced : No

Audio
ID : 2
Format : DTS
Format/Info : Digital Theater Systems
Mode : 16
Format settings, Endianness : Big
Codec ID : A_DTS
Duration : 1 h 40 min
Bit rate mode : Constant
Bit rate : 1 509 kb/s
Channel(s) : 2 channels
Channel positions : Front: L R
Sampling rate : 48.0 kHz
Frame rate : 93.750 FPS (512 SPF)
Bit depth : 24 bits
Compression mode : Lossy
Stream size : 1.06 GiB (13%)
Language : English
Default : Yes
Forced : No

Menu
00:00:00.000 : en:00:00:00.000
00:09:11.050 : en:00:09:11.050
00:14:25.073 : en:00:14:25.073
00:22:15.834 : en:00:22:15.834
00:33:26.880 : en:00:33:26.880
00:43:20.306 : en:00:43:20.306
00:53:20.322 : en:00:53:20.322
01:00:40.637 : en:01:00:40.637
01:10:09.872 : en:01:10:09.872
01:19:59.795 : en:01:19:59.795
01:27:39.546 : en:01:27:39.546
01:34:35.962 : en:01:34:35.962





1 个附件 售价 大小 下载 时间

Dead.Reckoning.1947.1080p.BluRay.x264-SiNNERS.torrent 0 金币 80.02K 434 次 5月前

#1楼
发帖时间:2019-07-09 16:05:03   |   回复数:2
911degrees
隐世仙人♂
非常感谢,谢谢分享
5月前 #2楼
liyouchai
隐世仙人♂
谢谢楼主分享资源
5月前 #3楼
游客组