conanlcg
超级版主

[更 早] [其他] [剧情] [BD-1080P] 以暴制暴 The.Violent.Professionals.1973.ITALIAN.1080p.BluRay.x264-HANDJOB 8.12GB

-->

帖子完整标题:以暴制暴 The.Violent.Professionals.1973.ITALIAN.1080p.BluRay.x264-HANDJOB 8.12GB




◎译  名 以暴制暴 / Violent Professionals
◎片  名 Milano trema - la polizia vuole giustizia (Violent Professionals)
◎年  代 1973
◎产  地 意大利
◎类  别 剧情 / 犯罪
◎语  言 意大利语
◎上映日期 1973-08-22
◎IMDb评分 6.4/10 from 578 users
◎IMDb链接 http://www.imdb.com/title/tt0070393
◎豆瓣评分 0/10 from 0 users
◎豆瓣链接 https://movie.douban.com/subject/2132377/
◎片  长 104 分钟
◎导  演 Sergio Martino
◎编  剧 Ernesto Gastaldi
◎主  演 Luc Merenda
      Richard Conte
      Silvano Tranquilli


◎标  签 意大利 | Sergio_Martino | 1975 | ¥ | 黑帮片 | 被忽视的片子 | 意大利电影

◎简  介

  So far I've seen five of these 70's Italian crime thrillers, 3 of them being straight up, Don Siegel and William Friedkin-influenced "cop on the edge with an axe to grind" Dirty Harry rip-offs. Out of those three, all of which are great, this has got to be the one with the coolest story-line (the other two being "High Crime" and "Violent Naples," to give you an idea of the standard here). While it is neither perfect nor entirely realistic, it is action-packed, bloody and riveting, a cocktail of elements common to the genre. And this particular "cop-on-the-edge," played by Luc Merenda, is so on-the-edge that he "poses" as a pimp muscling in on prostitution rackets with the facility of an old pro, gets innocent bystanders killed without hardly batting an eye, and cold-bloodedly executes surrendering criminals in front of the entire police department!
While he lacks quite the level of charisma and intensity delivered by Franco Nero or Maurizio Merli, Merenda holds his own. The primary reason he is able to do so here (the two secondary are Sergio Martino's competence in directing pulse-pounding action and the fact that the extremity I've come to expect from these films is as present here as anywhere) is the sucker-punch, no, make that downright subversive plot-line. Without giving too much away, suffice it to say that what appears to be shaping up into a slanted portrayal of fanatical domestic terrorists (not that groups like the Red Brigade need any slanting to look bad, just that dishonesty bugs me even if it's on the right side) proves later to be something entirely different. The ending of this film, while it would be typical in another context, blew me away.
To top it off, you've got a killer score by the mad De Angelis brothers (if you've seen "Keoma," note that it helps that the only song with words isn't translated into English), and the only fatal car crash I've ever seen in an action movie where the car doesn't inexplicably burst into flames. Three cheers for this gleefully brutal mayhem-fest with the added plus of an intelligent plot!

Video
ID : 1
Format : AVC
Format/Info : Advanced Video Codec
Format profile : [email protected]
Format settings : CABAC / 5 Ref Frames
Format settings, CABAC : Yes
Format settings, ReFrames : 5 frames
Codec ID : V_MPEG4/ISO/AVC
Duration : 1 h 39 min
Bit rate : 11.6 Mb/s
Width : 1 920 pixels
Height : 818 pixels
Display aspect ratio : 2.35:1
Frame rate mode : Constant
Frame rate : 23.976 (24000/1001) FPS
Color space : YUV
Chroma subsampling : 4:2:0
Bit depth : 8 bits
Scan type : Progressive
Bits/(Pixel*Frame) : 0.307
Stream size : 8.01 GiB (99%)
Writing library : x264 core 157 r2935 545de2f
Encoding settings : cabac=1 / ref=5 / deblock=1:-3:-3 / analyse=0x3:0x133 / me=umh / subme=10 / psy=1 / psy_rd=1.00:0.00 / mixed_ref=1 / me_range=32 / chroma_me=1 / trellis=2 / 8x8dct=1 / cqm=0 / deadzone=21,11 / fast_pskip=0 / chroma_qp_offset=-2 / threads=18 / lookahead_threads=4 / sliced_threads=0 / nr=0 / decimate=0 / interlaced=0 / bluray_compat=0 / constrained_intra=0 / bframes=16 / b_pyramid=2 / b_adapt=2 / b_bias=0 / direct=3 / weightb=1 / open_gop=0 / weightp=2 / keyint=240 / keyint_min=24 / scenecut=40 / intra_refresh=0 / rc_lookahead=60 / rc=crf / mbtree=0 / crf=19.5 / qcomp=0.60 / qpmin=0 / qpmax=69 / qpstep=4 / vbv_maxrate=62500 / vbv_bufsize=78125 / crf_max=0.0 / nal_hrd=none / filler=0 / ip_ratio=1.40 / pb_ratio=1.30 / aq=2:1.00
Language : Italian
Default : Yes
Forced : No
Color range : Limited
Color primaries : BT.709
Transfer characteristics : BT.709
Matrix coefficients : BT.709

Audio
ID : 2
Format : AAC LC
Format/Info : Advanced Audio Codec Low Complexity
Codec ID : A_AAC-2
Duration : 1 h 39 min
Bit rate : 152 kb/s
Channel(s) : 2 channels
Channel layout : L R
Sampling rate : 48.0 kHz
Frame rate : 46.875 FPS (1024 SPF)
Compression mode : Lossy
Stream size : 108 MiB (1%)
Language : Italian
Default : Yes
Forced : No

Text
ID : 3
Format : UTF-8
Codec ID : S_TEXT/UTF8
Codec ID/Info : UTF-8 Plain Text
Duration : 1 h 32 min
Bit rate : 56 b/s
Count of elements : 1350
Stream size : 38.2 KiB (0%)
Language : English
Default : Yes
Forced : No





1 个附件 售价 大小 下载 时间

The.Violent.Professionals.1973.ITALIAN.1080p.BluRay.x264-HANDJOB.torrent 0 金币 41.15K 329 次 5月前

#1楼
发帖时间:2019-06-14 11:14:57   |   回复数:2
911degrees
隐世仙人♂
非常感谢,谢谢分享
5月前 #2楼
liyouchai
隐世仙人♂
谢谢楼主分享资源
5月前 #3楼
游客组