conanlcg
超级版主

[更 早] [欧美] [剧情] [BD-1080P] 泽西女孩/新泽西夜未眠 Jersey.Girl.2004.1080p.BluRay.x264-BRMP 7.94GB

-->

帖子完整标题:泽西女孩/新泽西夜未眠 Jersey.Girl.2004.1080p.BluRay.x264-BRMP 7.94GB




◎译  名 泽西女孩 / 新泽西夜未眠 / 新泽西爱未眠
◎片  名 Jersey Girl
◎年  代 2004
◎产  地 美国
◎类  别 剧情 / 喜剧 / 爱情
◎语  言 英语
◎上映日期 2004-03-26
◎IMDb评分 6.2/10 from 60172 users
◎IMDb链接 http://www.imdb.com/title/tt0300051
◎豆瓣评分 7.1/10 from 5367 users
◎豆瓣链接 https://movie.douban.com/subject/1308816/
◎片  长 102 分钟
◎导  演 Kevin Smith
◎编  剧 Kevin Smith
◎主  演 Ben Affleck
      Liv Tyler
      Jennifer Lopez
      George Carlin
      Raquel Castro
      马特·达蒙 Matt Damon


◎标  签 美国 | 亲情 | 爱情 | BenAffleck | 美国电影 | 本·阿弗莱克 | 喜剧 | LivTyler

◎简  介

  身为一名颇有名气的乐评人,奥利(本·阿弗莱克 Ben Affleck 饰)在职场上可谓是风生水起,除了事业上的成功外,美丽的妻子和可爱的女儿格蒂(雷奎尔·卡斯特罗 Raquel Castro 饰)也让他觉得生活几近完美。可是,妻子的突然辞世让这些美好都成为了泡影,祸不单行,不久之后,情绪低落的奥利丢掉了原本收入颇丰的工作。无奈之下,奥利只得带着格蒂回到了位于新泽西的老家。
乡下宜人的风景和闲散的生活并没有治愈奥利受伤的心灵,反倒是格蒂感到如鱼得水,不仅仅是因为这里的好气候,更是因为从前忙碌的父亲如今有了更多的时间陪伴自己。机缘巧合之下,奥利遇见了名叫玛雅(丽芙·泰勒 Liv Tyler 饰)的女孩,而这珍贵的相遇终于让他明白了,究竟什么才是生命中最重要的东西。

Video
ID : 1
Format : AVC
Format/Info : Advanced Video Codec
Format profile : [email protected]
Format settings, CABAC : Yes
Format settings, ReFrames : 5 frames
Codec ID : V_MPEG4/ISO/AVC
Duration : 1h 42mn
Bit rate : 9 618 Kbps
Width : 1 920 pixels
Height : 792 pixels
Display aspect ratio : 2.40:1
Frame rate mode : Constant
Frame rate : 23.976 (24000/1001) fps
Color space : YUV
Chroma subsampling : 4:2:0
Bit depth : 8 bits
Scan type : Progressive
Bits/(Pixel*Frame) : 0.264
Stream size : 6.71 GiB (84%)
Writing library : x264 core 132 r2310 76a5c3a
Encoding settings : cabac=1 / ref=5 / deblock=1:0:0 / analyse=0x3:0x133 / me=umh / subme=7 / psy=1 / psy_rd=1.00:0.00 / mixed_ref=1 / me_range=16 / chroma_me=1 / trellis=1 / 8x8dct=1 / cqm=0 / deadzone=21,11 / fast_pskip=0 / chroma_qp_offset=-2 / threads=12 / lookahead_threads=2 / sliced_threads=0 / nr=0 / decimate=1 / interlaced=0 / bluray_compat=0 / constrained_intra=0 / bframes=3 / b_pyramid=2 / b_adapt=1 / b_bias=0 / direct=1 / weightb=1 / open_gop=0 / weightp=2 / keyint=240 / keyint_min=23 / scenecut=40 / intra_refresh=0 / rc_lookahead=40 / rc=2pass / mbtree=1 / bitrate=9618 / ratetol=1.0 / qcomp=0.60 / qpmin=0 / qpmax=69 / qpstep=4 / cplxblur=20.0 / qblur=0.5 / ip_ratio=1.40 / aq=1:1.00
Language : English
Default : Yes
Forced : No

Audio
ID : 2
Format : DTS
Format/Info : Digital Theater Systems
Mode : 16
Format settings, Endianness : Big
Codec ID : A_DTS
Duration : 1h 42mn
Bit rate mode : Constant
Bit rate : 1 509 Kbps
Channel(s) : 6 channels
Channel positions : Front: L C R, Side: L R, LFE
Sampling rate : 48.0 KHz
Frame rate : 93.750 fps (512 spf)
Bit depth : 24 bits
Compression mode : Lossy
Stream size : 1.08 GiB (14%)
Language : English
Default : Yes
Forced : No





1 个附件 售价 大小 下载 时间

Jersey.Girl.2004.1080p.BluRay.x264-BRMP.torrent 0 金币 80.01K 602 次 1月前

#1楼
发帖时间:2019-06-14 10:54:44   |   回复数:2
911degrees
隐世仙人♂
非常感谢,谢谢分享
1月前 #2楼
liyouchai
隐世仙人♂
谢谢楼主分享资源
1月前 #3楼
游客组