conanlcg
超级版主

[更 早] [欧美] [惊悚] [BD-1080P] 致命玩笑 Joy.Ride.2001.1080p.BluRay.X264-AMIABLE 6.55GB

-->

帖子完整标题:致命玩笑 Joy.Ride.2001.1080p.BluRay.X264-AMIABLE 6.55GB




◎译  名 致命玩笑 / Roadkill / 惊心之旅 / 死神勾线 / 玩出祸
◎片  名 Joy Ride
◎年  代 2001
◎产  地 美国
◎类  别 惊悚 / 犯罪
◎语  言 英语
◎上映日期 2001-10-05
◎IMDb评分 6.6/10 from 60135 users
◎IMDb链接 http://www.imdb.com/title/tt0206314
◎豆瓣评分 6.8/10 from 5586 users
◎豆瓣链接 https://movie.douban.com/subject/1298437/
◎片  长 97 分钟
◎导  演 约翰·达尔 John Dahl
◎编  剧 Clay Tarver / J.J. Abrams
◎主  演 Paul Walker
      Steve Zahn
      Leelee Sobieski


◎标  签 惊悚 | 美国 | 公路 | 恐怖 | 悬疑 | 犯罪 | 美国电影 | 2001

◎简  介

  暑假来临,大学新生刘易斯·托马斯(保罗·沃克尔 Paul Walker 饰)决定穿州过省,前往新泽西去看望他自高中时代便喜欢的女孩维娜·威尔柯斯(Leelee Sobieski 饰)。为了打发旅途上的无聊时光,他将正因酒后驾车蹲局子的老哥富勒(史蒂夫·赞恩 Steve Zahn 饰)保释出来,兄弟俩一路通行。
旅途中,富勒买了一部车载对讲机,与其他的司机扯皮聊天。期间他们搭上一个绰号“锈钉”的卡车司机,富勒突发奇想,怂恿弟弟假扮女人用对讲机勾引锈钉。对他们来说,这似乎是旅途中一个无伤大雅、转眼就忘的玩笑。没想到他们却惹上了这个难缠和恐怖的家伙。在接下来的时间里,锈钉成为刘易斯、富勒和维娜难以摆脱的噩梦……

Video
ID : 1
Format : AVC
Format/Info : Advanced Video Codec
Format profile : [email protected]
Format settings, CABAC : Yes
Format settings, ReFrames : 5 frames
Codec ID : V_MPEG4/ISO/AVC
Duration : 1 h 37 min
Bit rate : 8 155 kb/s
Width : 1 920 pixels
Height : 816 pixels
Display aspect ratio : 2.35:1
Frame rate mode : Constant
Frame rate : 23.976 (24000/1001) FPS
Color space : YUV
Chroma subsampling : 4:2:0
Bit depth : 8 bits
Scan type : Progressive
Bits/(Pixel*Frame) : 0.217
Stream size : 5.40 GiB (82%)
Writing library : x264 core 138 r2358 9e941d1
Encoding settings : cabac=1 / ref=5 / deblock=1:-3:-3 / analyse=0x3:0x113 / me=umh / subme=8 / psy=1 / psy_rd=1.00:0.00 / mixed_ref=1 / me_range=16 / chroma_me=1 / trellis=1 / 8x8dct=1 / cqm=0 / deadzone=21,11 / fast_pskip=1 / chroma_qp_offset=-2 / threads=12 / lookahead_threads=2 / sliced_threads=0 / nr=0 / decimate=1 / interlaced=0 / bluray_compat=0 / constrained_intra=0 / bframes=3 / b_pyramid=2 / b_adapt=2 / b_bias=0 / direct=3 / weightb=1 / open_gop=0 / weightp=2 / keyint=240 / keyint_min=24 / scenecut=40 / intra_refresh=0 / rc_lookahead=50 / rc=2pass / mbtree=1 / bitrate=8155 / ratetol=1.0 / qcomp=0.60 / qpmin=0 / qpmax=69 / qpstep=4 / cplxblur=20.0 / qblur=0.5 / ip_ratio=1.40 / aq=1:1.00
Language : English
Default : Yes
Forced : No

Audio
ID : 2
Format : DTS
Format/Info : Digital Theater Systems
Mode : 16
Format settings, Endianness : Big
Codec ID : A_DTS
Duration : 1 h 37 min
Bit rate mode : Constant
Bit rate : 1 509 kb/s
Channel(s) : 6 channels
Channel positions : Front: L C R, Side: L R, LFE
Sampling rate : 48.0 kHz
Frame rate : 93.750 FPS (512 spf)
Bit depth : 24 bits
Compression mode : Lossy
Stream size : 1.02 GiB (16%)
Language : English
Default : Yes
Forced : No

Text #1
ID : 3
Format : UTF-8
Codec ID : S_TEXT/UTF8
Codec ID/Info : UTF-8 Plain Text
Title : SDH
Language : English
Default : No
Forced : No

Text #2
ID : 4
Format : UTF-8
Codec ID : S_TEXT/UTF8
Codec ID/Info : UTF-8 Plain Text
Language : English
Default : No
Forced : No

Menu
00:00:00.000 : en:00:00:00.000
00:01:53.113 : en:00:01:53.113
00:03:49.187 : en:00:03:49.187
00:06:03.405 : en:00:06:03.405
00:10:04.813 : en:00:10:04.813
00:11:40.116 : en:00:11:40.116
00:15:52.827 : en:00:15:52.827
00:17:21.707 : en:00:17:21.707
00:21:27.912 : en:00:21:27.912
00:25:58.515 : en:00:25:58.515
00:31:03.612 : en:00:31:03.612
00:36:08.375 : en:00:36:08.375
00:39:21.985 : en:00:39:21.985
00:42:22.206 : en:00:42:22.206
00:48:36.372 : en:00:48:36.372
00:50:40.829 : en:00:50:40.829
00:54:37.191 : en:00:54:37.191
00:58:30.382 : en:00:58:30.382
01:00:51.731 : en:01:00:51.731
01:02:46.346 : en:01:02:46.346
01:04:39.501 : en:01:04:39.501
01:08:00.451 : en:01:08:00.451
01:12:18.042 : en:01:12:18.042
01:15:57.678 : en:01:15:57.678
01:18:10.060 : en:01:18:10.060
01:24:02.829 : en:01:24:02.829
01:25:54.107 : en:01:25:54.107
01:29:02.587 : en:01:29:02.587
01:31:40.620 : en:01:31:40.620
01:33:05.288 : en:01:33:05.288





1 个附件 售价 大小 下载 时间

Joy.Ride.2001.1080p.BluRay.X264-AMIABLE.torrent 0 金币 66.07K 595 次 5月前

#1楼
发帖时间:2019-06-14 10:50:44   |   回复数:3
911degrees
隐世仙人♂
非常感谢,谢谢分享
5月前 #2楼
liyouchai
隐世仙人♂
谢谢楼主分享资源
5月前 #3楼
tanchoohoon
武林盟主
感谢楼主的无私分享
5月前 #4楼
游客组