conanlcg
超级版主

[更 早] [欧美] [动作] [BD-1080P] 再生侠/闪灵悍将 Spawn.1997.DC.1080p.BluRay.x264-HD4U 7.65GB

-->

帖子完整标题:再生侠/闪灵悍将 Spawn.1997.DC.1080p.BluRay.x264-HD4U 7.65GB




◎译  名 再生侠 / 闪灵悍将
◎片  名 Spawn
◎年  代 1997
◎产  地 美国
◎类  别 动作 / 恐怖
◎语  言 英语
◎上映日期 1997-08-01(美国)
◎IMDb评分 5.2/10 from 60147 users
◎IMDb链接 http://www.imdb.com/title/tt0120177
◎豆瓣评分 6.1/10 from 4097 users
◎豆瓣链接 https://movie.douban.com/subject/1304154/
◎片  长 96分钟
◎导  演 马可·A·Z·迪普 Mark A.Z. Dippé
◎编  剧 马可·A·Z·迪普 Mark A.Z. Dippé / 艾伦·B·罗伊 Alan B. McElroy / 托德·麦克法兰 Todd McFarlane
◎主  演 迈克尔·加·怀特 Michael Jai White
      约翰·雷吉扎莫 John Leguizamo
      马丁·辛 Martin Sheen
      特里萨·兰德尔 Theresa Randle
      尼科尔·威廉森 Nicol Williamson
      D·B·斯威尼 D.B. Sweeney
      美琳达·克拉克 Melinda Clarke
      米克·休斯 Miko Hughes
      迈克尔·帕帕约翰 Michael Papajohn
      弗兰克·维尔克 Frank Welker
      小约翰·科思伦 John Cothran Jr.
      Sydni Beaudoin
      Robia LaMorte
      Marc Robinson


◎标  签 科幻 | 漫画改编 | 美国 | 动作 | 魔幻 | 美国电影 | 1997 | 暴力

◎简  介

  在人间之外的天堂与地狱之战绵延不绝,双方都在为自己争取强力的战士。中情局特工西蒙斯(迈克尔·加·怀特 Michael Jai White 饰)厌倦了杀戮的任务,向上司威恩(马丁·辛 Martin Sheen 饰)提出退出,岂料却在朝鲜执行任务时被威恩害死。坠入地狱的西蒙斯与恶魔马里波吉亚达成协议,同意为它统率地狱军队来换得再生报仇的机会。被恶魔雪藏五年的西蒙斯再生回到人间,以再生侠之名示人,并在恶魔走狗——小丑的引领下向威恩复仇。此时研究生化武器着魔的威恩试图统治世界,而他的死亡会引发全球陷入生化灾难。为了复仇的西蒙斯能置全人类的安危于不顾么?

Video
ID : 1
Format : AVC
Format/Info : Advanced Video Codec
Format profile : [email protected]
Format settings, CABAC : Yes
Format settings, ReFrames : 4 frames
Codec ID : V_MPEG4/ISO/AVC
Duration : 1 h 38 min
Bit rate : 9 602 kb/s
Width : 1 920 pixels
Height : 1 080 pixels
Display aspect ratio : 16:9
Frame rate mode : Constant
Frame rate : 23.976 FPS
Color space : YUV
Chroma subsampling : 4:2:0
Bit depth : 8 bits
Scan type : Progressive
Bits/(Pixel*Frame) : 0.193
Stream size : 6.46 GiB (84%)
Writing library : x264 core 125 r2200 999b753
Encoding settings : cabac=1 / ref=4 / deblock=1:0:0 / analyse=0x3:0x133 / me=umh / subme=7 / psy=1 / psy_rd=1.00:0.00 / mixed_ref=1 / me_range=16 / chroma_me=1 / trellis=1 / 8x8dct=1 / cqm=0 / deadzone=21,11 / fast_pskip=0 / chroma_qp_offset=-2 / threads=18 / lookahead_threads=3 / sliced_threads=0 / nr=0 / decimate=1 / interlaced=0 / bluray_compat=0 / constrained_intra=0 / bframes=3 / b_pyramid=2 / b_adapt=1 / b_bias=0 / direct=1 / weightb=1 / open_gop=0 / weightp=2 / keyint=250 / keyint_min=23 / scenecut=40 / intra_refresh=0 / rc_lookahead=40 / rc=2pass / mbtree=1 / bitrate=9602 / ratetol=1.0 / qcomp=0.60 / qpmin=0 / qpmax=69 / qpstep=4 / cplxblur=20.0 / qblur=0.5 / ip_ratio=1.40 / aq=1:1.00
Language : English
Default : Yes
Forced : No

Audio
ID : 2
Format : DTS
Format/Info : Digital Theater Systems
Mode : 16
Format settings, Endianness : Big
Codec ID : A_DTS
Duration : 1 h 38 min
Bit rate mode : Constant
Bit rate : 1 509 kb/s
Channel(s) : 6 channels
Channel positions : Front: L C R, Side: L R, LFE
Sampling rate : 48.0 kHz
Frame rate : 93.750 FPS (512 spf)
Bit depth : 24 bits
Compression mode : Lossy
Stream size : 1.04 GiB (14%)
Language : English
Default : Yes
Forced : No

Text
ID : 3
Format : UTF-8
Codec ID : S_TEXT/UTF8
Codec ID/Info : UTF-8 Plain Text
Language : English
Default : No
Forced : No

Menu
00:00:00.000 : en:00:00:00.000
00:03:24.204 : en:00:03:24.204
00:06:20.797 : en:00:06:20.797
00:08:02.982 : en:00:08:02.982
00:11:28.563 : en:00:11:28.563
00:14:36.876 : en:00:14:36.876
00:18:34.238 : en:00:18:34.238
00:22:27.555 : en:00:22:27.555
00:26:49.233 : en:00:26:49.233
00:31:23.882 : en:00:31:23.882
00:33:02.981 : en:00:33:02.981
00:37:40.425 : en:00:37:40.425
00:45:22.720 : en:00:45:22.720
00:47:59.293 : en:00:47:59.293
00:52:18.969 : en:00:52:18.969
00:56:03.443 : en:00:56:03.443
01:04:19.022 : en:01:04:19.022
01:07:48.439 : en:01:07:48.439
01:09:50.061 : en:01:09:50.061
01:12:35.434 : en:01:12:35.434
01:16:43.933 : en:01:16:43.933
01:22:41.874 : en:01:22:41.874
01:26:14.294 : en:01:26:14.294
01:31:55.927 : en:01:31:55.927





1 个附件 售价 大小 下载 时间

Spawn.1997.DC.1080p.BluRay.x264-HD4U.torrent 0 金币 77.01K 1414 次 1月前

#1楼
发帖时间:2019-06-14 10:42:40   |   回复数:3
911degrees
隐世仙人♂
非常感谢,谢谢分享
1月前 #2楼
BoatJ
小有名气
谢谢分享,很经典的电影。
1月前 #3楼
liyouchai
隐世仙人♂
谢谢楼主分享资源
1月前 #4楼
游客组