conanlcg
超级版主

[更 早] [欧美] [其他] [BD-1080P] 圣痕/天魔下凡 Stigmata.1999.1080p.BluRay.X264-AMIABLE 8.74GB

-->

帖子完整标题:圣痕/天魔下凡 Stigmata.1999.1080p.BluRay.X264-AMIABLE 8.74GB




◎译  名 圣痕 / 天魔下凡 / 神迹魔兆 / 魂飞魄散
◎片  名 Stigmata
◎年  代 1999
◎产  地 美国
◎类  别 悬疑 / 恐怖
◎语  言 英语 / Syriac / 葡萄牙语 / 意大利语 / Aramaic
◎上映日期 1999-11-25
◎IMDb评分 6.2/10 from 60729 users
◎IMDb链接 http://www.imdb.com/title/tt0145531
◎豆瓣评分 6.7/10 from 669 users
◎豆瓣链接 https://movie.douban.com/subject/1292743/
◎片  长 103 分钟
◎导  演 鲁伯特·温莱特 Rupert Wainwright
◎编  剧 Tom Lazarus / Rick Ramage
◎主  演 帕特丽夏·阿奎特 Patricia Arquette
      加布里埃尔·伯恩 Gabriel Byrne
      乔纳森·普雷斯 Jonathan Pryce
      尼娅·朗 Nia Long
      Thomas Kopache
      拉德·舍博德兹加 Rade Serbedzija
      Dick Latessa
      波莎·德罗西 Portia de Rossi
      帕特里克·茂顿 Patrick Muldoon
      安·库萨克 Ann Cusack
      肖恩·托布 Shaun Toub
      Shaun Duke


◎标  签 宗教 | 美国 | 恐怖 | 惊悚 | 1999 | 美国电影 | 悬疑 | 电影

◎简  介

  Frankie Paige(Patricia Arquette饰)是个二十几岁的普通发型师。像她这样平凡的无神论女孩,在附近可以找出几百个。突然,她的生活被一股神秘力量影响并失去控制……
梵帝冈的Cardinal Daniel Houseman(Jonathan Pryce饰)派遣神父调查员Andrew Kiernan(Gabriel Byrne饰)去匹兹堡调查这一事件……

Video
ID : 1
Format : AVC
Format/Info : Advanced Video Codec
Format profile : [email protected]
Format settings, CABAC : Yes
Format settings, ReFrames : 5 frames
Codec ID : V_MPEG4/ISO/AVC
Duration : 1 h 42 min
Bit rate : 10.7 Mb/s
Width : 1 920 pixels
Height : 848 pixels
Display aspect ratio : 2.25:1
Frame rate mode : Constant
Frame rate : 23.976 (24000/1001) FPS
Color space : YUV
Chroma subsampling : 4:2:0
Bit depth : 8 bits
Scan type : Progressive
Bits/(Pixel*Frame) : 0.275
Stream size : 7.49 GiB (86%)
Writing library : x264 core 146 r2538 121396c
Encoding settings : cabac=1 / ref=5 / deblock=1:-3:-3 / analyse=0x3:0x113 / me=umh / subme=8 / psy=1 / psy_rd=1.00:0.00 / mixed_ref=1 / me_range=16 / chroma_me=1 / trellis=1 / 8x8dct=1 / cqm=0 / deadzone=21,11 / fast_pskip=1 / chroma_qp_offset=-2 / threads=18 / lookahead_threads=3 / sliced_threads=0 / nr=0 / decimate=1 / interlaced=0 / bluray_compat=0 / constrained_intra=0 / bframes=3 / b_pyramid=2 / b_adapt=2 / b_bias=0 / direct=3 / weightb=1 / open_gop=0 / weightp=2 / keyint=240 / keyint_min=24 / scenecut=40 / intra_refresh=0 / rc_lookahead=50 / rc=2pass / mbtree=1 / bitrate=10740 / ratetol=1.0 / qcomp=0.60 / qpmin=0 / qpmax=69 / qpstep=4 / cplxblur=20.0 / qblur=0.5 / ip_ratio=1.40 / aq=1:1.00
Language : English
Default : Yes
Forced : No

Audio
ID : 2
Format : DTS
Format/Info : Digital Theater Systems
Mode : 16
Format settings, Endianness : Big
Codec ID : A_DTS
Duration : 1 h 42 min
Bit rate mode : Constant
Bit rate : 1 509 kb/s
Channel(s) : 6 channels
Channel positions : Front: L C R, Side: L R, LFE
Sampling rate : 48.0 kHz
Frame rate : 93.750 FPS (512 spf)
Bit depth : 24 bits
Compression mode : Lossy
Stream size : 1.08 GiB (12%)
Language : English
Default : Yes
Forced : No

Text #1
ID : 3
Format : UTF-8
Codec ID : S_TEXT/UTF8
Codec ID/Info : UTF-8 Plain Text
Title : SDH
Language : English
Default : No
Forced : No

Text #2
ID : 4
Format : UTF-8
Codec ID : S_TEXT/UTF8
Codec ID/Info : UTF-8 Plain Text
Language : English
Default : No
Forced : No

Menu
00:00:00.000 : en:00:00:00.000
00:08:23.920 : en:00:08:23.920
00:16:19.937 : en:00:16:19.937
00:24:40.896 : en:00:24:40.896
00:34:26.564 : en:00:34:26.564
00:43:37.657 : en:00:43:37.657
00:50:44.250 : en:00:50:44.250
01:00:41.596 : en:01:00:41.596
01:10:21.008 : en:01:10:21.008
01:19:05.699 : en:01:19:05.699
01:27:58.857 : en:01:27:58.857
01:36:17.855 : en:01:36:17.855





1 个附件 售价 大小 下载 时间

Stigmata.1999.1080p.BluRay.X264-AMIABLE.torrent 0 金币 87.90K 553 次 1月前

#1楼
发帖时间:2019-06-14 10:40:41   |   回复数:2
911degrees
隐世仙人♂
非常感谢,谢谢分享
1月前 #2楼
liyouchai
隐世仙人♂
谢谢楼主分享资源
1月前 #3楼
游客组