conanlcg
超级版主

[更 早] [其他] [动作] [BD-1080P] 街头霸王 Street.Fighter.1994.1080p.Bluray.x264-Japhson 7.95GB

-->

帖子完整标题:街头霸王 Street.Fighter.1994.1080p.Bluray.x264-Japhson 7.95GB




◎译  名 街头霸王 / Street Fighter: The Battle for Shadaloo / Street Fighter: The Movie / 快打旋风
◎片  名 Street Fighter
◎年  代 1994
◎产  地 美国 / 日本
◎类  别 动作 / 惊悚 / 犯罪
◎语  言 英语 / 日语
◎上映日期 1994-12-23
◎IMDb评分 3.9/10 from 60974 users
◎IMDb链接 http://www.imdb.com/title/tt0111301
◎豆瓣评分 5.2/10 from 2074 users
◎豆瓣链接 https://movie.douban.com/subject/1297176/
◎片  长 102 分钟
◎导  演 Steven E. de Souza
◎编  剧 Steven E. de Souza
◎主  演 Jean-Claude Van Damme
      Raul Julia
      温明娜
      Damian Chapa
      Kylie Minogue


◎标  签 动作 | 美国 | 游戏改编 | 尚格·云顿 | 1994 | 美国电影 | 科幻 | 街头霸王

◎简  介

  据风靡全球的格斗游戏“街头霸王“游戏改编的真人版本,尚格 云顿主演,喜欢街霸的切莫错过!
经逊将军掳走了六十三名解放工人为人质,威胁联军部队在七十二小时内交出二十亿赎金,联军基路上校与甘美将军查探比逊总部保垒地点企图救人,却因记者春丽把事情越弄越复杂。

Video
ID : 1
Format : AVC
Format/Info : Advanced Video Codec
Format profile : [email protected]
Format settings : CABAC / 5 Ref Frames
Format settings, CABAC : Yes
Format settings, ReFrames : 5 frames
Codec ID : V_MPEG4/ISO/AVC
Duration : 1 h 41 min
Bit rate : 10.6 Mb/s
Width : 1 920 pixels
Height : 800 pixels
Display aspect ratio : 2.40:1
Frame rate mode : Constant
Frame rate : 23.976 FPS
Color space : YUV
Chroma subsampling : 4:2:0
Bit depth : 8 bits
Scan type : Progressive
Bits/(Pixel*Frame) : 0.287
Stream size : 7.33 GiB (92%)
Writing library : x264 core 66 r1109M 75b495f
Encoding settings : cabac=1 / ref=5 / deblock=1:-1:-1 / analyse=0x3:0x113 / me=umh / subme=7 / psy_rd=1.0:0.0 / mixed_ref=1 / me_range=16 / chroma_me=1 / trellis=2 / 8x8dct=1 / cqm=0 / deadzone=21,11 / chroma_qp_offset=-2 / threads=6 / nr=0 / decimate=1 / mbaff=0 / bframes=3 / b_pyramid=0 / b_adapt=2 / b_bias=0 / direct=3 / wpredb=1 / keyint=250 / keyint_min=25 / scenecut=40(pre) / rc=2pass / bitrate=10572 / ratetol=1.0 / qcomp=0.60 / qpmin=10 / qpmax=51 / qpstep=4 / cplxblur=20.0 / qblur=0.5 / vbv_maxrate=50000 / vbv_bufsize=50000 / ip_ratio=1.40 / pb_ratio=1.30 / aq=1:1.00
Language : English
Default : Yes
Forced : No

Audio
ID : 2
Format : AC-3
Format/Info : Audio Coding 3
Codec ID : A_AC3
Duration : 1 h 41 min
Bit rate mode : Constant
Bit rate : 640 kb/s
Channel(s) : 6 channels
Channel positions : Front: L C R, Side: L R, LFE
Sampling rate : 48.0 kHz
Frame rate : 31.250 FPS (1536 SPF)
Bit depth : 16 bits
Compression mode : Lossy
Stream size : 464 MiB (6%)
Language : English
Service kind : Complete Main
Default : Yes
Forced : No





1 个附件 售价 大小 下载 时间

Street.Fighter.1994.1080p.Bluray.x264-Japhson.torrent 0 金币 79.95K 1225 次 5月前

#1楼
发帖时间:2019-06-14 10:38:47   |   回复数:2
911degrees
隐世仙人♂
非常感谢,谢谢分享
5月前 #2楼
liyouchai
隐世仙人♂
谢谢楼主分享资源
5月前 #3楼
游客组