conanlcg
超级版主

[更 早] [其他] [科幻] [BD-1080P] 异次元骇客/13阶梯 The.Thirteenth.Floor.1999.1080p.BluRay.x264-CiNEFiLE 6.56GB

-->

帖子完整标题:异次元骇客/13阶梯 The.Thirteenth.Floor.1999.1080p.BluRay.x264-CiNEFiLE 6.56GB




◎译  名 异次元骇客 / 13阶梯 / The 13th Floor / 十三层楼 / 十三度凶兆 / 十三度凶间 / 第十三层
◎片  名 The Thirteenth Floor
◎年  代 1999
◎产  地 德国 / 美国
◎类  别 科幻 / 悬疑 / 惊悚
◎语  言 英语
◎上映日期 1999-05-28(美国)
◎IMDb评分 7.0/10 from 61731 users
◎IMDb链接 http://www.imdb.com/title/tt0139809
◎豆瓣评分 8.3/10 from 63949 users
◎豆瓣链接 https://movie.douban.com/subject/1300282/
◎片  长 100分钟
◎导  演 约瑟夫·鲁斯纳克 Josef Rusnak
◎编  剧 约瑟夫·鲁斯纳克 Josef Rusnak / Daniel F. Galouye
◎主  演 克雷格·比尔克 Craig Bierko
      阿明·缪勒-斯塔尔 Armin Mueller-Stahl
      格瑞辰·摩尔 Gretchen Mol
      文森特·多诺费奥 Vincent D'Onofrio
      丹尼斯·海斯伯特 Dennis Haysbert
      斯蒂文·沙博 Steven Schub
      里夫·霍顿 Rif Hutton
      珍妮特·麦克拉克伦 Janet MacLachlan
      布拉德·威廉姆·亨克 Brad William Henke
      蒂娅·德克萨达 Tia Texada
      Leon Rippy
      Burt Bulos
      Howard S. Miller


◎标  签 科幻 | 悬疑 | 美国 | 哲学 | 惊悚 | 美国电影 | 幻想 | 1999

◎简  介

  十三,一个听起来就有些阴冷的数字。在一座大厦的第十三层,科学家道格拉斯?霍尔(克雷戈?比克饰)和汉农?富勒(阿明?缪勒-斯塔尔饰)用电脑模拟出一个逼真的1937年的洛杉矶,他们可以通过电脑进入这个虚拟世界,真实地体验1937年的生活与自己。然而一个夜里,富勒被人杀死,种种线索都表明似乎是霍尔所为。可霍尔却对当天夜里的事情全无记忆。这时一个自称是富勒女儿的女人又神秘出现,可霍尔从未听富勒说过自己有女儿……为了找到凶手明晓真相,霍尔循着富勒留下的线索来到虚拟世界中,他离真相越来越近了……近到窒息……

Video
ID : 1
Format : AVC
Format/Info : Advanced Video Codec
Format profile : [email protected]
Format settings, CABAC : Yes
Format settings, ReFrames : 5 frames
Codec ID : V_MPEG4/ISO/AVC
Duration : 1 h 40 min
Bit rate : 8 702 kb/s
Width : 1 920 pixels
Height : 800 pixels
Display aspect ratio : 2.40:1
Frame rate mode : Constant
Frame rate : 23.976 FPS
Color space : YUV
Chroma subsampling : 4:2:0
Bit depth : 8 bits
Scan type : Progressive
Bits/(Pixel*Frame) : 0.236
Stream size : 5.98 GiB (91%)
Writing library : x264 core 67 r1139 1024283
Encoding settings : cabac=1 / ref=5 / deblock=1:0:0 / analyse=0x3:0x113 / me=umh / subme=7 / psy_rd=1.0:0.0 / mixed_ref=1 / me_range=16 / chroma_me=1 / trellis=1 / 8x8dct=1 / cqm=0 / deadzone=21,11 / chroma_qp_offset=-2 / threads=6 / nr=0 / decimate=1 / mbaff=0 / bframes=3 / b_pyramid=1 / b_adapt=1 / b_bias=0 / direct=1 / wpredb=1 / keyint=250 / keyint_min=25 / scenecut=40 / rc=2pass / bitrate=8702 / ratetol=1.0 / qcomp=0.60 / qpmin=10 / qpmax=51 / qpstep=4 / cplxblur=20.0 / qblur=0.5 / ip_ratio=1.40 / pb_ratio=1.30 / aq=1:1.00
Language : English
Default : Yes
Forced : No

Audio
ID : 2
Format : AC-3
Format/Info : Audio Coding 3
Format settings, Endianness : Big
Codec ID : A_AC3
Duration : 1 h 40 min
Bit rate mode : Constant
Bit rate : 640 kb/s
Channel(s) : 6 channels
Channel positions : Front: L C R, Side: L R, LFE
Sampling rate : 48.0 kHz
Frame rate : 31.250 FPS (1536 spf)
Bit depth : 16 bits
Compression mode : Lossy
Stream size : 460 MiB (7%)
Service kind : Complete Main
Default : Yes
Forced : No

Text
ID : 3
Format : UTF-8
Codec ID : S_TEXT/UTF8
Codec ID/Info : UTF-8 Plain Text
Language : English
Default : No
Forced : No





1 个附件 售价 大小 下载 时间

The.Thirteenth.Floor.1999.1080p.BluRay.x264-CiNEFiLE.torrent 0 金币 66.13K 2303 次 5月前

#1楼
发帖时间:2019-06-14 10:28:41   |   回复数:4
Eurus
武林高手
大学时看的电影,当时直接给我看的怀疑人生了
5月前 #2楼
jokingcheung
一代宗师
谢谢分享
5月前 #3楼
911degrees
隐世仙人♂
非常感谢,谢谢分享
5月前 #4楼
liyouchai
隐世仙人♂
谢谢楼主分享资源
5月前 #5楼
游客组