conanlcg
超级版主

[2012] [欧美] [剧情] [BD-1080P] 勇者行动/勇举 Act.of.Valor.2012.1080p.BluRay.x264-SPARKS 7.65GB

-->

帖子完整标题:勇者行动/勇举 Act.of.Valor.2012.1080p.BluRay.x264-SPARKS 7.65GB




◎译  名 勇者行动 / 勇举 / 海豹神兵:英勇行动(台) / 海豹突击队(港)
◎片  名 Act of Valor
◎年  代 2012
◎产  地 美国
◎类  别 剧情 / 动作 / 战争
◎语  言 英语
◎上映日期 2012-02-24(美国)
◎IMDb评分 6.5/10 from 63796 users
◎IMDb链接 http://www.imdb.com/title/tt1591479
◎豆瓣评分 7.6/10 from 26874 users
◎豆瓣链接 https://movie.douban.com/subject/5157137/
◎片  长 110分钟
◎导  演 迈克·麦克罗伊 Mike McCoy / Scott Waugh
◎编  剧 库尔特·约恩斯塔德 Kurt Johnstad
◎主  演 罗塞莉·桑切斯 Roselyn Sanchez
      埃米里奥·瑞弗拉 Emilio Rivera
      内斯特·塞拉诺 Nestor Serrano
      Gonzalo Menendez
      Carla Jimenez


◎标  签 战争 | 美国 | 军事 | 动作 | 枪战 | 2012 | 反恐 | 感人

◎简  介

  洛克,即将成为人父,正准备与大家分享这份喜悦。却突然接到上级命令,带领自己的小队去营救被绑架的CIA人质。虽然与家人才团聚没有多久,但是时刻为祖国效命是海豹突击队员的职责。洛克所率领的小队很快集结,按照计划前往目的地营救人质。不过,在营救过程中,洛克却发现了恐怖分子布下的天罗地网,一场惊天阴谋正在酝酿实施中。如果不能加以阻止,美国本土很可能会遭受严重的恐怖袭击。因此,海豹突击小队,一刻都没有停息,在全球展开了一场大围剿……本片被认为是真人版的《战地3》,片方在全球多个地方取景,根据真实的事件改编。

◎获奖情况

  第70届金球奖(2013)
  电影类 最佳原创歌曲(提名)

  第18届美国评论家选择电影奖(2013)
  最佳歌曲(提名) 凯斯·厄本

  第14届美国青少年选择奖(2012)
  最佳动作片(提名)



Video
ID : 1
Format : AVC
Format/Info : Advanced Video Codec
Format profile : [email protected]
Format settings : CABAC / 5 Ref Frames
Format settings, CABAC : Yes
Format settings, ReFrames : 5 frames
Codec ID : V_MPEG4/ISO/AVC
Duration : 1 h 50 min
Bit rate : 8 423 kb/s
Width : 1 920 pixels
Height : 800 pixels
Display aspect ratio : 2.40:1
Frame rate mode : Constant
Frame rate : 23.976 FPS
Color space : YUV
Chroma subsampling : 4:2:0
Bit depth : 8 bits
Scan type : Progressive
Bits/(Pixel*Frame) : 0.229
Stream size : 6.33 GiB (83%)
Writing library : x264 core 124 r2197 69a0443
Encoding settings : cabac=1 / ref=5 / deblock=1:0:0 / analyse=0x3:0x133 / me=umh / subme=7 / psy=1 / psy_rd=1.00:0.00 / mixed_ref=1 / me_range=16 / chroma_me=1 / trellis=1 / 8x8dct=1 / cqm=0 / deadzone=21,11 / fast_pskip=0 / chroma_qp_offset=-2 / threads=12 / sliced_threads=0 / nr=0 / decimate=1 / interlaced=0 / bluray_compat=0 / constrained_intra=0 / bframes=3 / b_pyramid=2 / b_adapt=1 / b_bias=0 / direct=1 / weightb=1 / open_gop=0 / weightp=2 / keyint=250 / keyint_min=23 / scenecut=40 / intra_refresh=0 / rc_lookahead=40 / rc=2pass / mbtree=1 / bitrate=8423 / ratetol=1.0 / qcomp=0.60 / qpmin=0 / qpmax=69 / qpstep=4 / cplxblur=20.0 / qblur=0.5 / ip_ratio=1.40 / aq=1:1.00
Language : English
Default : Yes
Forced : No

Audio
ID : 2
Format : DTS
Format/Info : Digital Theater Systems
Codec ID : A_DTS
Duration : 1 h 50 min
Bit rate mode : Constant
Bit rate : 1 509 kb/s
Channel(s) : 6 channels
Channel layout : C L R Ls Rs LFE
Sampling rate : 48.0 kHz
Frame rate : 93.750 FPS (512 SPF)
Bit depth : 24 bits
Compression mode : Lossy
Stream size : 1.16 GiB (15%)
Language : English
Default : Yes
Forced : No

Text
ID : 3
Format : UTF-8
Codec ID : S_TEXT/UTF8
Codec ID/Info : UTF-8 Plain Text
Language : English
Default : No
Forced : No

Menu
00:00:00.000 : en:00:00:00.000
00:04:13.712 : en:00:04:13.712
00:08:14.619 : en:00:08:14.619
00:11:40.199 : en:00:11:40.199
00:15:51.367 : en:00:15:51.367
00:20:26.934 : en:00:20:26.934
00:25:32.281 : en:00:25:32.281
00:30:10.058 : en:00:30:10.058
00:35:50.607 : en:00:35:50.607
00:39:21.150 : en:00:39:21.150
00:43:02.038 : en:00:43:02.038
00:48:31.200 : en:00:48:31.200
00:51:46.061 : en:00:51:46.061
00:54:54.791 : en:00:54:54.791
00:58:58.618 : en:00:58:58.618
01:02:49.057 : en:01:02:49.057
01:08:10.461 : en:01:08:10.461
01:11:54.560 : en:01:11:54.560
01:17:47.872 : en:01:17:47.872
01:21:51.156 : en:01:21:51.156
01:26:12.751 : en:01:26:12.751
01:32:46.352 : en:01:32:46.352
01:35:48.618 : en:01:35:48.618
01:41:55.109 : en:01:41:55.109





1 个附件 售价 大小 下载 时间

Act.of.Valor.2012.1080p.BluRay.x264-SPARKS.torrent 0 金币 38.75K 1155 次 1月前

#1楼
发帖时间:2019-06-14 10:22:38   |   回复数:3
jokingcheung
一代宗师
谢谢分享
1月前 #2楼
911degrees
隐世仙人♂
非常感谢,谢谢分享
1月前 #3楼
liyouchai
隐世仙人♂
谢谢楼主分享资源
1月前 #4楼
游客组