conanlcg
超级版主

[2009] [泰国] [喜剧] [BD-1080P] 英雄少年 Power.Kids.2009.1080p.BluRay.x264-SSF 6.55GB

-->

帖子完整标题:英雄少年 Power.Kids.2009.1080p.BluRay.x264-SSF 6.55GB




◎译  名 英雄少年 / Power Kids
◎片  名 5 huajai hero
◎年  代 2009
◎产  地 泰国
◎类  别 喜剧 / 动作
◎语  言 泰语
◎IMDb评分 5.8/10 from 365 users
◎IMDb链接 http://www.imdb.com/title/tt1401690
◎豆瓣评分 6.2/10 from 136 users
◎豆瓣链接 https://movie.douban.com/subject/3739660/
◎导  演 Krissanapong Rachata
◎编  剧 Nonont Kontaweesook / Napalee / Piyaros Thongdee
◎主  演 Nantawooti Boonrapsap
      Sasisa Jindamanee
      Pimchanok Leuwisetpaiboon
      Richard William Lord
      Johnny Nguyen


◎标  签 动作 | 泰国 | 泰国电影 | 泰拳 | 少年 | 电影 | 亲情 | 2009

◎简  介

  Lek老師(Arun Phawilai飾)是一名泰拳敎練,一直敎導着一班小孩子泰拳以自我防衛,他們是Wuth(Nuttawuth Boonrapsap飾)、Catt(Sanisa Chindamanee飾)及Pong(Paethaiy Wongkumlao飾)。他們3個人必須照顧擁有心疾的Wun(Darun Tantivichitvej飾),Wuth的弟弟。
因為Wun突然心臟病發而必須進行緊急的心臟轉移手術,所以他們來到了一個被國際恐怖組織首領Peda(Johnny Ngian)所控制的醫院。
無可避免地,他們必須捲入這場醫院的嚴峻考驗,英勇小孩及殘忍恐懼份子之間的激烈打鬥就在這里發生……

Video
ID : 1
Format : AVC
Format/Info : Advanced Video Codec
Format profile : [email protected]
Format settings : CABAC / 4 Ref Frames
Format settings, CABAC : Yes
Format settings, ReFrames : 4 frames
Codec ID : V_MPEG4/ISO/AVC
Duration : 1 h 16 min
Bit rate : 10.8 Mb/s
Width : 1 920 pixels
Height : 1 080 pixels
Display aspect ratio : 16:9
Frame rate mode : Constant
Frame rate : 23.976 (24000/1001) FPS
Color space : YUV
Chroma subsampling : 4:2:0
Bit depth : 8 bits
Scan type : Progressive
Bits/(Pixel*Frame) : 0.216
Stream size : 5.61 GiB (86%)
Writing library : x264 core 98 r1643 59a9e03
Encoding settings : cabac=1 / ref=4 / deblock=1:0:0 / analyse=0x3:0x133 / me=umh / subme=7 / psy=1 / psy_rd=1.00:0.15 / mixed_ref=1 / me_range=16 / chroma_me=1 / trellis=1 / 8x8dct=1 / cqm=0 / deadzone=21,11 / fast_pskip=0 / chroma_qp_offset=-3 / threads=12 / sliced_threads=0 / nr=0 / decimate=0 / interlaced=0 / constrained_intra=0 / bframes=3 / b_pyramid=2 / b_adapt=1 / b_bias=0 / direct=1 / weightb=1 / weightp=2 / keyint=250 / keyint_min=25 / scenecut=40 / intra_refresh=0 / rc_lookahead=40 / rc=2pass / mbtree=1 / bitrate=10762 / ratetol=1.0 / qcomp=0.60 / qpmin=10 / qpmax=51 / qpstep=4 / cplxblur=20.0 / qblur=0.5 / ip_ratio=1.40 / aq=2:1.00
Language : English
Default : No
Forced : No

Audio
ID : 2
Format : DTS
Format/Info : Digital Theater Systems
Codec ID : A_DTS
Duration : 1 h 16 min
Bit rate mode : Constant
Bit rate : 1 509 kb/s
Channel(s) : 6 channels
Channel layout : C L R Ls Rs LFE
Sampling rate : 48.0 kHz
Frame rate : 93.750 FPS (512 SPF)
Bit depth : 16 bits
Compression mode : Lossy
Stream size : 826 MiB (12%)
Language : Thai
Default : Yes
Forced : No

Text
ID : 3
Format : UTF-8
Codec ID : S_TEXT/UTF8
Codec ID/Info : UTF-8 Plain Text
Language : English
Default : Yes
Forced : No





1 个附件 售价 大小 下载 时间

Power.Kids.2009.1080p.BluRay.x264-SSF.torrent 0 金币 33.24K 399 次 1月前

#1楼
发帖时间:2019-06-14 10:04:32   |   回复数:2
911degrees
隐世仙人♂
非常感谢,谢谢分享
1月前 #2楼
liyouchai
隐世仙人♂
谢谢楼主分享资源
1月前 #3楼
游客组