conanlcg
超级版主

[更 早] [欧美] [喜剧] [WEB-1080P] 兔巴哥的1001个传说 Bugs.Bunnys.3rd.Movie.1001.Rabbit.Tales.1982.1080p.AMZN.WEBRip.DDP2.

-->

帖子完整标题:兔巴哥的1001个传说 Bugs.Bunnys.3rd.Movie.1001.Rabbit.Tales.1982.1080p.AMZN.WEBRip.DDP2.0.x264-SiGMA 7.57GB




◎译  名 兔巴哥的1001个传说
◎片  名 Bugs Bunnys 1001 Rabbit Tales(1982)
◎年  代 1982
◎产  地 美国
◎类  别 喜剧 / 动画 / 音乐 / 家庭 / 冒险
◎语  言 英语
◎上映日期 1982-11-19
◎IMDb评分 7.1/10 from 1566 users
◎IMDb链接 http://www.imdb.com/title/tt0083701
◎豆瓣评分 8.5/10 from 80 users
◎豆瓣链接 https://movie.douban.com/subject/1890178/
◎片  长 74 分钟
◎导  演 弗里兹·弗里伦 Friz Freleng
◎编  剧 约翰·W·邓恩 John W. Dunn / David Detiege
◎主  演 梅尔·布兰科 Mel Blanc
      Arthur Q. Bryan
      珍妮·芬妮 June Foray


◎标  签 动画 | 美国动画 | 美国 | 童年回忆 | 动画片 | 动画电影 | 美国电影 | 好莱坞电影

◎简  介

  Bugs Bunny and Daffy Duck are rival book salesmen from Rambling House. They each go their separate ways to sell books to folks, Daffy finds himself encountering Elmer Fudd and Porky Pig. Bugs gets forced by Sultan Yosemite Sam to tell stories to his bratty son, Prince Abba-Dabba. The stories are shown through clips of old Warner Bros. Looney Tunes and Merrie Melodies

Video
ID : 1
Format : AVC
Format/Info : Advanced Video Codec
Format profile : [email protected]
Format settings : CABAC / 4 Ref Frames
Format settings, CABAC : Yes
Format settings, ReFrames : 4 frames
Codec ID : V_MPEG4/ISO/AVC
Duration : 1 h 13 min
Bit rate mode : Variable
Bit rate : 14.5 Mb/s
Maximum bit rate : 15.0 Mb/s
Width : 1 920 pixels
Height : 1 080 pixels
Display aspect ratio : 16:9
Frame rate mode : Constant
Frame rate : 23.976 (24000/1001) FPS
Color space : YUV
Chroma subsampling : 4:2:0
Bit depth : 8 bits
Scan type : Progressive
Bits/(Pixel*Frame) : 0.291
Stream size : 7.46 GiB (98%)
Writing library : x264 core 148 r2623 d5b2374
Encoding settings : cabac=1 / ref=4 / deblock=1:-1:-1 / analyse=0x3:0x133 / me=umh / subme=9 / psy=1 / psy_rd=1.00:0.15 / mixed_ref=1 / me_range=24 / chroma_me=1 / trellis=2 / 8x8dct=1 / cqm=0 / deadzone=21,11 / fast_pskip=1 / chroma_qp_offset=-3 / threads=34 / lookahead_threads=5 / sliced_threads=0 / nr=150 / decimate=1 / interlaced=0 / bluray_compat=0 / constrained_intra=0 / bframes=8 / b_pyramid=2 / b_adapt=2 / b_bias=0 / direct=3 / weightb=1 / open_gop=0 / weightp=2 / keyint=120 / keyint_min=61 / scenecut=0 / intra_refresh=0 / rc_lookahead=120 / rc=crf / mbtree=1 / crf=18.0 / qcomp=0.60 / qpmin=0 / qpmax=69 / qpstep=4 / vbv_maxrate=15000 / vbv_bufsize=31250 / crf_max=0.0 / nal_hrd=vbr / filler=0 / ip_ratio=1.40 / aq=3:1.00
Default : Yes
Forced : No
Color range : Limited
Color primaries : BT.709
Transfer characteristics : BT.709
Matrix coefficients : BT.709

Audio
ID : 2
Format : E-AC-3
Format/Info : Enhanced AC-3
Commercial name : Dolby Digital Plus
Codec ID : A_EAC3
Duration : 1 h 13 min
Bit rate mode : Constant
Bit rate : 224 kb/s
Channel(s) : 2 channels
Channel layout : L R
Sampling rate : 48.0 kHz
Frame rate : 31.250 FPS (1536 SPF)
Compression mode : Lossy
Stream size : 118 MiB (2%)
Language : English
Service kind : Complete Main
Default : Yes
Forced : No

Text
ID : 3
Format : UTF-8
Codec ID : S_TEXT/UTF8
Codec ID/Info : UTF-8 Plain Text
Duration : 1 h 11 min
Bit rate : 57 b/s
Count of elements : 1185
Stream size : 30.1 KiB (0%)
Language : English
Default : No
Forced : No





1 个附件 售价 大小 下载 时间

Bugs.Bunnys.3rd.Movie.1001.Rabbit.Tales.1982.1080p.AMZN.WEBRip.DDP2.0.x264-SiGMA.torrent 0 金币 38.45K 763 次 5月前

#1楼
发帖时间:2019-06-13 18:56:30   |   回复数:2
911degrees
隐世仙人♂
非常感谢,谢谢分享
5月前 #2楼
liyouchai
隐世仙人♂
谢谢楼主分享资源
5月前 #3楼
游客组