conanlcg
超级版主

[更 早] [欧美] [剧情] [WEB-1080P] 肇事逃逸 Hit.and.Run.1999.1080p.AMZN.WEBRip.DDP2.0.x264-pawel2006 9.33GB

-->

帖子完整标题:肇事逃逸 Hit.and.Run.1999.1080p.AMZN.WEBRip.DDP2.0.x264-pawel2006 9.33GB




◎译  名 肇事逃逸
◎片  名 Hit and Run
◎年  代 1999
◎产  地 美国
◎类  别 剧情
◎语  言 英语
◎上映日期 1999-01-11
◎IMDb评分 6.0/10 from 330 users
◎IMDb链接 http://www.imdb.com/title/tt0185364
◎豆瓣评分 0/10 from 0 users
◎豆瓣链接 https://movie.douban.com/subject/4901251/
◎导  演 Dan Lerner
◎编  剧 Karen Stillman
◎主  演 Margaret Colin
      Lisa Vidal
      Drew Pillsbury
      Allison Gregory
      Chris Boscia


◎标  签 美国电影 | 人性 | 剧情 | 美国 | 电视电影 | 电影 | 正大剧场 | 欧美电影

◎简  介

  在这个充满悬疑惊悚片,Joanna Kendall必须选择正确和错误之间时,她不小心撞到一个小女孩和她的车。离开后呼救,她回来了,只听到了惊恐的旁观者的反应,他们对罪犯离开犯罪现场感到愤慨。在恐慌和混乱的时刻,乔安娜做出了改变生活的决定保持沉默。影响的雪球,这样完美的妻子和母亲必须面对她的罪行,以及与女侦探怀疑她。

Video
ID : 1
Format : AVC
Format/Info : Advanced Video Codec
Format profile : [email protected]
Format settings : CABAC / 4 Ref Frames
Format settings, CABAC : Yes
Format settings, ReFrames : 4 frames
Codec ID : V_MPEG4/ISO/AVC
Duration : 1 h 32 min
Bit rate : 14.3 Mb/s
Width : 1 920 pixels
Height : 1 080 pixels
Display aspect ratio : 16:9
Frame rate mode : Constant
Frame rate : 23.976 (24000/1001) FPS
Color space : YUV
Chroma subsampling : 4:2:0
Bit depth : 8 bits
Scan type : Progressive
Bits/(Pixel*Frame) : 0.287
Stream size : 9.18 GiB (98%)
Default : Yes
Forced : No
Color range : Limited
Color primaries : BT.709
Transfer characteristics : BT.709
Matrix coefficients : BT.709

Audio
ID : 2
Format : E-AC-3
Format/Info : Enhanced AC-3
Commercial name : Dolby Digital Plus
Codec ID : A_EAC3
Duration : 1 h 32 min
Bit rate mode : Constant
Bit rate : 224 kb/s
Channel(s) : 2 channels
Channel layout : L R
Sampling rate : 48.0 kHz
Frame rate : 31.250 FPS (1536 SPF)
Compression mode : Lossy
Stream size : 148 MiB (2%)
Language : English
Service kind : Complete Main
Default : Yes
Forced : No

Text
ID : 3
Format : UTF-8
Codec ID : S_TEXT/UTF8
Codec ID/Info : UTF-8 Plain Text
Duration : 1 h 30 min
Bit rate : 73 b/s
Count of elements : 1631
Stream size : 48.3 KiB (0%)
Title : SDH
Language : English
Default : No
Forced : No





1 个附件 售价 大小 下载 时间

Hit.and.Run.1999.1080p.AMZN.WEBRip.DDP2.0.x264-pawel2006.torrent 0 金币 47.17K 329 次 1月前

#1楼
发帖时间:2019-06-13 18:48:40   |   回复数:3
tanchoohoon
武林盟主
感谢楼主的无私分享
1月前 #2楼
911degrees
隐世仙人♂
非常感谢,谢谢分享
1月前 #3楼
liyouchai
隐世仙人♂
谢谢楼主分享资源
1月前 #4楼
游客组