conanlcg
超级版主

[更 早] [欧美] [剧情] [BD-1080P] 没有布兰蒂什小姐的兰花 No.Orchids.for.Miss.Blandish.1948.1080p.BluRay.x264-GHOULS 7.66GB

-->

帖子完整标题:没有布兰蒂什小姐的兰花 No.Orchids.for.Miss.Blandish.1948.1080p.BluRay.x264-GHOULS 7.66GB




◎译  名 没有布兰蒂什小姐的兰花
◎片  名 No Orchids for Miss Blandish
◎年  代 1948
◎产  地 英国
◎类  别 剧情 / 犯罪
◎语  言 英语
◎上映日期 1948-04-13
◎IMDb评分 6.1/10 from 432 users
◎IMDb链接 http://www.imdb.com/title/tt0040647
◎豆瓣评分 0/10 from 0 users
◎豆瓣链接 https://movie.douban.com/subject/3422765/
◎片  长 UK: 104 分钟
◎导  演 圣约翰. L.克洛维斯
◎主  演 林登.特拉沃斯
      杰克.拉鲁
      休.麦克德莫特
      沃尔特. 克里山姆


◎标  签 剧情 | 人性 | 葛丽泰·嘉宝 | 犯罪 | hardley | 英国电影 | 产地/英国 | james

◎简  介

  这部根据詹姆斯.哈德利.柴斯小说改编的电影讲述一个年轻的女继承人即将走进一段包办婚姻,却被一个包拍绑架,并爱上了其中一个成员的故事。

Video
ID : 1
Format : AVC
Format/Info : Advanced Video Codec
Format profile : [email protected]
Format settings : CABAC / 5 Ref Frames
Format settings, CABAC : Yes
Format settings, ReFrames : 5 frames
Codec ID : V_MPEG4/ISO/AVC
Duration : 1 h 43 min
Bit rate : 9 829 kb/s
Width : 1 440 pixels
Height : 1 080 pixels
Display aspect ratio : 4:3
Frame rate mode : Constant
Frame rate : 23.976 (24000/1001) FPS
Color space : YUV
Chroma subsampling : 4:2:0
Bit depth : 8 bits
Scan type : Progressive
Bits/(Pixel*Frame) : 0.264
Stream size : 7.09 GiB (93%)
Writing library : x264 core 157 r2969 d4099dd
Encoding settings : cabac=1 / ref=5 / deblock=1:-3:-3 / analyse=0x3:0x133 / me=umh / subme=9 / psy=1 / psy_rd=1.00:0.00 / mixed_ref=1 / me_range=24 / chroma_me=1 / trellis=1 / 8x8dct=1 / cqm=0 / deadzone=21,11 / fast_pskip=0 / chroma_qp_offset=-2 / threads=24 / lookahead_threads=4 / sliced_threads=0 / nr=0 / decimate=1 / interlaced=0 / bluray_compat=0 / constrained_intra=0 / bframes=8 / b_pyramid=2 / b_adapt=2 / b_bias=0 / direct=3 / weightb=1 / open_gop=0 / weightp=2 / keyint=250 / keyint_min=23 / scenecut=40 / intra_refresh=0 / rc_lookahead=60 / rc=2pass / mbtree=1 / bitrate=9829 / ratetol=1.0 / qcomp=0.60 / qpmin=0 / qpmax=69 / qpstep=4 / cplxblur=20.0 / qblur=0.5 / vbv_maxrate=62500 / vbv_bufsize=78125 / nal_hrd=none / filler=0 / ip_ratio=1.40 / aq=1:1.00
Default : Yes
Forced : No

Audio
ID : 2
Format : DTS
Format/Info : Digital Theater Systems
Codec ID : A_DTS
Duration : 1 h 43 min
Bit rate mode : Constant
Bit rate : 768 kb/s
Channel(s) : 1 channel
Channel layout : C
Sampling rate : 48.0 kHz
Frame rate : 93.750 FPS (512 SPF)
Bit depth : 24 bits
Compression mode : Lossy
Stream size : 569 MiB (7%)
Language : English
Default : Yes
Forced : No

Menu
00:00:00.000 : en:Chapter 01
00:06:11.329 : en:Chapter 02
00:16:13.097 : en:Chapter 03
00:26:48.148 : en:Chapter 04
00:35:42.724 : en:Chapter 05
00:46:29.078 : en:Chapter 06
00:53:01.470 : en:Chapter 07
00:59:47.000 : en:Chapter 08
01:09:07.852 : en:Chapter 09
01:19:59.878 : en:Chapter 10
01:25:01.638 : en:Chapter 11
01:33:09.793 : en:Chapter 12





1 个附件 售价 大小 下载 时间

No.Orchids.for.Miss.Blandish.1948.1080p.BluRay.x264-GHOULS.torrent 0 金币 39.18K 329 次 5月前

#1楼
发帖时间:2019-06-13 16:34:09   |   回复数:2
911degrees
隐世仙人♂
非常感谢,谢谢分享
5月前 #2楼
liyouchai
隐世仙人♂
谢谢楼主分享资源
5月前 #3楼
游客组