conanlcg
超级版主

[2018] [欧美] [剧情] [WEB-1080P] 慰藉/安慰 Solace.2018.1080p.WEB-DL.DD5.1.H264-FGT 3.01GB

-->

帖子完整标题:慰藉/安慰 Solace.2018.1080p.WEB-DL.DD5.1.H264-FGT 3.01GB




◎译  名 慰藉 / 安慰
◎片  名 Solace
◎年  代 2018
◎产  地 美国
◎类  别 剧情
◎语  言 英语
◎上映日期 2018-09-23(洛杉矶电影节)
◎IMDb评分 4.7/10 from 31 users
◎IMDb链接 http://www.imdb.com/title/tt3240102
◎豆瓣评分 0/10 from 0 users
◎豆瓣链接 https://movie.douban.com/subject/34430808/
◎片  长 81分钟
◎导  演 Tchaiko Omawale
◎编  剧 Tchaiko Omawale
◎主  演 Hope Olaide Wilson
      切尔西·塔瓦雷斯 Chelsea Tavares
      林恩·惠特菲尔德 Lynn Whitfield
      Luke Rampersad
      格林·特鲁曼 Glynn Turman
      Melvin Abston


◎简  介

  Following the death of her father, a 17-year-old girl is sent to live with her estranged family and finds comfort in a questionable friendship with a self-destructive neighbor, leading both on a startling path to self discovery.

Video
ID : 1
Format : AVC
Format/Info : Advanced Video Codec
Format profile : [email protected]
Format settings : CABAC / 5 Ref Frames
Format settings, CABAC : Yes
Format settings, ReFrames : 5 frames
Codec ID : V_MPEG4/ISO/AVC
Duration : 1 h 27 min
Bit rate : 4 564 kb/s
Width : 1 920 pixels
Height : 804 pixels
Display aspect ratio : 2.40:1
Frame rate mode : Constant
Frame rate : 23.976 (24000/1001) FPS
Color space : YUV
Chroma subsampling : 4:2:0
Bit depth : 8 bits
Scan type : Progressive
Bits/(Pixel*Frame) : 0.123
Stream size : 2.78 GiB (92%)
Title : Solace.2018.1080p.WEB-DL.DD5.1.H264-FGT
Language : English
Default : Yes
Forced : No
Color range : Limited
Color primaries : BT.709
Transfer characteristics : BT.709
Matrix coefficients : BT.709

Audio
ID : 2
Format : AC-3
Format/Info : Audio Coding 3
Commercial name : Dolby Digital
Codec ID : A_AC3
Duration : 1 h 27 min
Bit rate mode : Constant
Bit rate : 384 kb/s
Channel(s) : 6 channels
Channel layout : L R C LFE Ls Rs
Sampling rate : 48.0 kHz
Frame rate : 31.250 FPS (1536 SPF)
Bit depth : 16 bits
Compression mode : Lossy
Stream size : 239 MiB (8%)
Title : Solace.2018.1080p.WEB-DL.DD5.1.H264-FGT
Language : English
Service kind : Complete Main
Default : Yes
Forced : No

Text
ID : 3
Format : UTF-8
Codec ID : S_TEXT/UTF8
Codec ID/Info : UTF-8 Plain Text
Duration : 1 h 23 min
Bit rate : 71 b/s
Count of elements : 1065
Stream size : 44.0 KiB (0%)
Language : English
Default : Yes
Forced : No

Menu
00:00:00.000 : en:Chapter 1
00:09:31.571 : en:Chapter 2
00:18:21.099 : en:Chapter 3
00:28:41.718 : en:Chapter 4
00:40:05.401 : en:Chapter 5
00:51:04.058 : en:Chapter 6
01:00:59.653 : en:Chapter 7
01:09:16.149 : en:Chapter 8
01:20:18.811 : en:Chapter 9





1 个附件 售价 大小 下载 时间

Solace.2018.1080p.WEB-DL.DD5.1.H264-FGT.torrent 0 金币 30.62K 511 次 5月前

#1楼
发帖时间:2019-06-13 11:39:24   |   回复数:3
yangbo83222179
一代宗师
谢谢楼主分享,支持一下
5月前 #2楼
911degrees
隐世仙人♂
非常感谢,谢谢分享
5月前 #3楼
liyouchai
隐世仙人♂
谢谢楼主分享资源
5月前 #4楼
游客组