conanlcg
超级版主

[2010] [香港] [剧情] [BD-1080P] 分手說愛你 Break.Up.Club.2010.1080p.BluRay.x264-SSF 7.94GB

-->

帖子完整标题:分手說愛你 Break.Up.Club.2010.1080p.BluRay.x264-SSF 7.94GB




◎译  名 分手说爱你 / Break Up Club
◎片  名 分手說愛你
◎年  代 2010
◎产  地 香港
◎类  别 剧情 / 喜剧 / 爱情
◎语  言 粤语
◎上映日期 2010-06-16(香港)
◎IMDb评分 5.9/10 from 317 users
◎IMDb链接 http://www.imdb.com/title/tt1517633
◎豆瓣评分 7.4/10 from 74988 users
◎豆瓣链接 https://movie.douban.com/subject/3804470/
◎片  长 104 分钟
◎导  演 黄真真 Chun-Chun Wong
◎编  剧 黄真真 Chun-Chun Wong / 郑丹瑞 Lawrence Cheng
◎主  演 房祖名 Jaycee Chan
      薛凯琪 Fiona Sit


◎标  签 爱情 | 香港电影 | 薛凯琪 | 香港 | 房祖名 | 分手说爱你 | 黄真真 | 2010

◎简  介

  Joe(房祖名 饰)与阿花(薛凯琪 饰)是一对相亲相爱的快乐小情侣,但是因一些微不足道的原因,Joe最终被女友踢出局。这个伤心的21岁男孩决定自杀,却在给亲友发电邮留遗书时发现一个奇怪的分手网站。该网站的法则是:只要Joe能够拆算其他情侣,他就可以跟自己的女友复合。
正值此时,香港电影人黄真真和郑丹瑞筹拍一部爱情电影,他们向社会征集青年男女们的爱情故事,Joe也应征前往。黄真真对Joe分手后的经历非常感兴趣,于是拿出一部DV,请Joe将挽回女友的全过程拍下来。好友Sunny(邓健泓 饰)为了Joe勇于献身,在拆散Sunny及其女友后,阿花竟真地回到Joe的身边……

◎获奖情况

  第30届香港电影金像奖(2011)
  最佳编剧(提名) 黄真真 / 郑丹瑞
  最佳女主角(提名) 薛凯琪
  最佳原创电影音乐(提名) 麦振鸿

  第11届华语电影传媒大奖(2011)
  观众票选最受瞩目表现 薛凯琪
  最佳女主角(提名) 薛凯琪



Video
ID : 1
Format : AVC
Format/Info : Advanced Video Codec
Format profile : [email protected]
Format settings : CABAC / 4 Ref Frames
Format settings, CABAC : Yes
Format settings, ReFrames : 4 frames
Codec ID : V_MPEG4/ISO/AVC
Duration : 1 h 54 min
Bit rate : 9 300 kb/s
Width : 1 920 pixels
Height : 1 080 pixels
Display aspect ratio : 16:9
Frame rate mode : Constant
Frame rate : 24.000 FPS
Color space : YUV
Chroma subsampling : 4:2:0
Bit depth : 8 bits
Scan type : Progressive
Bits/(Pixel*Frame) : 0.187
Stream size : 7.27 GiB (92%)
Writing library : x264 core 104 r1703 cd21d05
Encoding settings : cabac=1 / ref=4 / deblock=1:-1:-1 / analyse=0x3:0x133 / me=umh / subme=7 / psy=1 / psy_rd=1.00:0.15 / mixed_ref=1 / me_range=16 / chroma_me=1 / trellis=1 / 8x8dct=1 / cqm=0 / deadzone=21,11 / fast_pskip=0 / chroma_qp_offset=-3 / threads=12 / sliced_threads=0 / nr=0 / decimate=1 / interlaced=0 / constrained_intra=0 / bframes=3 / b_pyramid=2 / b_adapt=1 / b_bias=0 / direct=1 / weightb=1 / open_gop=0 / weightp=2 / keyint=250 / keyint_min=24 / scenecut=40 / intra_refresh=0 / rc_lookahead=40 / rc=2pass / mbtree=1 / bitrate=9300 / ratetol=1.0 / qcomp=0.60 / qpmin=10 / qpmax=51 / qpstep=4 / cplxblur=20.0 / qblur=0.5 / ip_ratio=1.40 / aq=1:1.00
Language : English
Default : Yes
Forced : No

Audio
ID : 2
Format : AC-3
Format/Info : Audio Coding 3
Commercial name : Dolby Digital
Muxing mode : Header stripping
Codec ID : A_AC3
Duration : 1 h 54 min
Bit rate mode : Constant
Bit rate : 640 kb/s
Channel(s) : 6 channels
Channel layout : L R C LFE Ls Rs
Sampling rate : 48.0 kHz
Frame rate : 31.250 FPS (1536 SPF)
Bit depth : 16 bits
Compression mode : Lossy
Stream size : 524 MiB (6%)
Language : Chinese
Service kind : Complete Main
Default : Yes
Forced : No

Text
ID : 3
Format : UTF-8
Codec ID : S_TEXT/UTF8
Codec ID/Info : UTF-8 Plain Text
Language : English
Default : Yes
Forced : No





4 个附件 售价 大小 下载 时间

Break.Up.Club.2010.1080p.BluRay.x264-SSF.torrent 0 金币 40.18K 763 次 7天前

God.Bless.America.2011.LiMiTED.1080p.BluRay.x264-SPARKS.torrent 0 金币 79.94K 357 次 7天前

Dark.Skies.2013.1080p.BluRay.x264-SPARKS.torrent 0 金币 66.11K 252 次 7天前

The.King.of.Comedy.1982.1080p.BluRay.X264-AMIABLE.torrent 0 金币 87.96K 280 次 7天前

#1楼
发帖时间:2019-06-13 04:21:50   |   回复数:2
911degrees
隐世仙人♂
非常感谢,谢谢分享
7天前 #2楼
liyouchai
超凡入圣№
谢谢楼主分享资源
7天前 #3楼
游客组