conanlcg
超级版主

[更 早] [欧美] [喜剧] [BD-1080P] 狗男女/冲吧 Go.1999.1080p.BluRay.x264.DD5.1-FGT 8.74GB

-->

帖子完整标题:狗男女/冲吧 Go.1999.1080p.BluRay.x264.DD5.1-FGT 8.74GB




◎译  名 狗男女 / 冲吧 / 前进 / 前进洛城 / 狗男女(台)
◎片  名 Go
◎年  代 1999
◎产  地 美国
◎类  别 喜剧 / 惊悚 / 犯罪
◎语  言 英语
◎上映日期 1999-04-09
◎IMDb评分 7.3/10 from 64183 users
◎IMDb链接 http://www.imdb.com/title/tt0139239
◎豆瓣评分 7.2/10 from 747 users
◎豆瓣链接 https://movie.douban.com/subject/1297075/
◎片  长 102 分钟
◎导  演 Doug Liman
◎编  剧 John August
◎主  演 Katie Holmes
      Sarah Polley
      Desmond Askew
      Scott Wolf
      Jay Mohr


◎标  签 美国 | 黑色幽默 | 犯罪 | 青春 | 1999 | 美国电影 | 喜剧 | 剧情

◎简  介

  罗娜(萨拉·波莉 Sarah Polley 饰)正面临着人生中的重大危机——缺钱,在帮毒虫朋友西蒙(德斯蒙德·奥斯基 Desmond Askew 饰)顶班时,阿戴姆(斯考特·沃夫 Scott Wolf 饰)和扎克(杰·摩尔 Jay Mohr 饰)希望能从罗娜那里弄一点毒品,这点醒了罗娜脑中的商业细胞,她决心当一名毒贩以度过这次难关。
实际上,阿戴姆和扎克是警方的线人,而罗娜则是他们第一次“任务”的目标人物,正在为自己的好主意沾沾自喜的罗娜还不知道,她遇上了大麻烦。与此同时,西蒙也遇上了点麻烦,他有些弄不明白,为什么前一刻还在拉斯维加斯逍遥快活的自己,下一刻却变成了身背数罪的逃犯。对于阿戴姆和扎克来说,他们的处境也不乐观,因为他们和负责管理他们的警察巴克(威廉·菲德内尔 William Fichtner 饰)之间的关系十分微妙。

Video
ID : 1
Format : AVC
Format/Info : Advanced Video Codec
Format profile : [email protected]
Format settings : CABAC / 4 Ref Frames
Format settings, CABAC : Yes
Format settings, ReFrames : 4 frames
Codec ID : V_MPEG4/ISO/AVC
Duration : 1 h 41 min
Bit rate : 11.6 Mb/s
Width : 1 920 pixels
Height : 800 pixels
Display aspect ratio : 2.40:1
Frame rate mode : Constant
Frame rate : 23.976 FPS
Color space : YUV
Chroma subsampling : 4:2:0
Bit depth : 8 bits
Scan type : Progressive
Bits/(Pixel*Frame) : 0.316
Stream size : 8.11 GiB (93%)
Writing library : x264 core 68 r1183M f21daff
Encoding settings : cabac=1 / ref=4 / deblock=1:-3:-3 / analyse=0x3:0x133 / me=umh / subme=9 / psy_rd=1.8:0.3 / mixed_ref=1 / me_range=56 / chroma_me=1 / trellis=2 / 8x8dct=1 / cqm=0 / deadzone=21,11 / chroma_qp_offset=-4 / threads=6 / nr=0 / decimate=0 / mbaff=0 / bframes=6 / b_pyramid=1 / b_adapt=2 / b_bias=0 / direct=3 / wpredb=1 / keyint=250 / keyint_min=25 / scenecut=40 / rc=2pass / bitrate=11634 / ratetol=1.0 / qcomp=0.60 / qpmin=10 / qpmax=51 / qpstep=4 / cplxblur=20.0 / qblur=0.5 / ip_ratio=1.40 / pb_ratio=1.30 / aq=1:1.00
Language : English
Default : Yes
Forced : No

Audio
ID : 2
Format : AC-3
Format/Info : Audio Coding 3
Commercial name : Dolby Digital
Codec ID : A_AC3
Duration : 1 h 41 min
Bit rate mode : Constant
Bit rate : 640 kb/s
Channel(s) : 6 channels
Channel layout : L R C LFE Ls Rs
Sampling rate : 48.0 kHz
Frame rate : 31.250 FPS (1536 SPF)
Bit depth : 16 bits
Compression mode : Lossy
Stream size : 467 MiB (5%)
Language : English
Service kind : Complete Main
Default : Yes
Forced : No

Text
ID : 3
Format : UTF-8
Codec ID : S_TEXT/UTF8
Codec ID/Info : UTF-8 Plain Text
Language : English
Default : No
Forced : No




#1楼
发帖时间:2019-06-13 04:21:47   |   回复数:3
911degrees
隐世仙人♂
非常感谢,谢谢分享
7天前 #2楼
yangbo83222179
一代宗师
谢谢楼主分享,支持一下
7天前 #3楼
liyouchai
超凡入圣№
谢谢楼主分享资源
7天前 #4楼
游客组